<?xml version="1.0" standalone="no"?>
<!DOCTYPE svg PUBLIC "-//W3C//DTD SVG 1.1//EN" "http://www.w3.org/Graphics/SVG/1.1/DTD/svg11.dtd" >
<svg xmlns="http://www.w3.org/2000/svg">
<metadata></metadata>
<defs>
<font id="hinglish_hindiregular" horiz-adv-x="0" >
<font-face units-per-em="2048" ascent="1536" descent="-512" />
<missing-glyph horiz-adv-x="819" />
<glyph />
<glyph unicode="&#xd;" horiz-adv-x="819" />
<glyph unicode=" "  horiz-adv-x="819" />
<glyph unicode="&#x09;" horiz-adv-x="819" />
<glyph unicode="&#xa0;" horiz-adv-x="819" />
<glyph unicode="!" horiz-adv-x="518" d="M205 377v252h252v-252h-252zM205 758v1540h252v-1540h-252z" />
<glyph unicode="&#x22;" horiz-adv-x="772" d="M61 1130v111q66 16 102 75.5t36 131.5v39h-138v254h256v-268q0 -55 -16 -110.5t-48 -103t-80 -81t-112 -48.5zM455 1130v111q66 16 101.5 75.5t35.5 131.5v39h-137v254h256v-268q0 -55 -16.5 -110.5t-48.5 -103t-80 -81t-111 -48.5z" />
<glyph unicode="#" horiz-adv-x="1687" d="M82 733l78 215h260l82 228h-262l77 215h261l122 350h263l-123 -350h235l123 350h262l-123 -350h269l-80 -215h-266l-82 -228h268l-78 -215h-266l-125 -356h-262l125 356h-234l-127 -356h-262l127 356h-262zM682 948h233l82 228h-233z" />
<glyph unicode="$" horiz-adv-x="1189" d="M123 1700q0 86 27.5 160.5t75.5 133t114 98.5t143 56v150h222v-158q70 -20 129 -61t103 -98.5t68.5 -129t24.5 -153.5q0 -37 -6 -69t-14 -56q-8 -29 -19 -53l-223 129q2 12 6 22q2 10 4 21.5t2 21.5q0 43 -16 82t-44 66.5t-65 44t-80 16.5t-80.5 -16.5t-65.5 -44 t-43 -64.5t-15 -80q0 -53 17.5 -89t44 -61.5t58 -42t60.5 -30.5q106 -49 206.5 -97t174.5 -116q61 -57 98 -132t37 -181q0 -82 -27.5 -156t-76 -133t-115 -100t-143.5 -56v-147h-222v155q-70 20 -129 61.5t-102 98t-67.5 125t-24.5 146.5q0 37 4 67.5t10 52.5q8 27 16 50 l228 -123q-2 -6 -4 -15q-4 -16 -4 -34q0 -43 15 -82t43 -67t64.5 -44t79.5 -16t80 16t64.5 44t44 64.5t16.5 79.5t-17.5 79t-45 65.5t-60 52.5t-65.5 39q-88 45 -173 84t-155 88q-80 57 -129 135t-49 201z" />
<glyph unicode="%" horiz-adv-x="1275" d="M123 1587q0 66 45 112t111 46t111.5 -46t45.5 -112t-46 -110.5t-111 -44.5q-66 0 -111 45t-45 110zM162 377l682 1921h260l-680 -1921h-262zM840 1108q0 63 45 108.5t110 45.5q66 0 112 -45.5t46 -108.5q0 -66 -46 -111t-112 -45t-110.5 45t-44.5 111z" />
<glyph unicode="&#x26;" horiz-adv-x="1476" d="M125 772q0 80 36 141.5t75 114.5l585 713l207 -150q-133 -160 -246 -303q-49 -61 -99 -122.5t-95 -118t-82 -102.5t-60 -75q-29 -35 -28 -36q-20 -29 -23.5 -64t8 -64.5t36 -50t57.5 -20.5h194q12 0 19 2q-33 49 -33 108q0 82 57.5 139.5t138.5 57.5q39 0 74 -15.5 t61.5 -41t42 -61t15.5 -74.5q0 -84 -30.5 -153t-82 -118t-119 -75.5t-143.5 -26.5h-207q-156 10 -260 123q-51 55 -76.5 125.5t-21.5 146.5z" />
<glyph unicode="'" horiz-adv-x="378" d="M61 1130v111q66 16 102 75.5t36 131.5v39h-138v254h256v-268q0 -55 -16 -110.5t-48 -103t-80 -81t-112 -48.5z" />
<glyph unicode="(" horiz-adv-x="845" d="M82 1147q0 168 29.5 336t85 320.5t132.5 279.5t173 215h262q-94 -88 -175 -210t-140.5 -270.5t-93 -318.5t-33.5 -352t33.5 -350t93 -315.5t139.5 -270.5t172 -211h-264q-92 88 -169 216t-131.5 279.5t-84 318.5t-29.5 333z" />
<glyph unicode=")" horiz-adv-x="845" d="M82 2298h262q94 -88 172 -215t133.5 -279.5t85 -320.5t29.5 -336q0 -166 -29.5 -333t-84 -318.5t-131.5 -279.5t-169 -216h-264q92 88 172 211t139.5 270.5t93 315.5t33.5 350t-33.5 352t-93 318.5t-140.5 270.5t-175 210z" />
<glyph unicode="*" horiz-adv-x="1200" d="M123 1047l264 190l-264 193l143 198l211 -151v264h246v-264l211 151l143 -198l-266 -193l266 -190l-143 -201l-211 153v-264h-246v264l-213 -149z" />
<glyph unicode="+" horiz-adv-x="927" d="M82 958v218h274v274h215v-274h275v-218h-275v-270h-215v270h-274z" />
<glyph unicode="," horiz-adv-x="378" d="M61 20v111q66 16 102 75.5t36 131.5v39h-138v254h256v-269q0 -55 -16 -110t-48 -102.5t-80 -81t-112 -48.5z" />
<glyph unicode="-" horiz-adv-x="839" d="M41 956v224h758v-224h-758z" />
<glyph unicode="." horiz-adv-x="415" d="M82 377v1923h252v-1923h-252z" />
<glyph unicode="/" horiz-adv-x="1163" d="M82 0l729 2298h270l-731 -2298h-268z" />
<glyph unicode="0" horiz-adv-x="1525" d="M82 1059q0 141 54 265t146.5 216t216.5 146.5t265 54.5t265 -54.5t216 -146.5t145.5 -216t53.5 -265t-53.5 -265t-145.5 -216.5t-216 -146.5t-265 -54t-265 54t-216.5 146.5t-146.5 216.5t-54 265zM354 1059q0 -84 33 -159t88 -130t130 -88t159 -33t158.5 33t130 88 t87 130t31.5 159t-31.5 158.5t-87 130t-130 88t-158.5 32.5t-159 -32.5t-130 -88t-88 -130t-33 -158.5z" />
<glyph unicode="1" horiz-adv-x="1005" d="M123 1360q0 80 29.5 148.5t81 120.5t120 82t148.5 30t148.5 -30t120.5 -82t82 -120.5t30 -148.5v-983h-260v622q-59 -18 -121 -18q-80 0 -148.5 29.5t-120 81t-81 120t-29.5 148.5zM381 1360q0 -51 35 -86t86 -35t86 35t35 86t-35 86t-86 35t-86 -35t-35 -86z" />
<glyph unicode="2" horiz-adv-x="1476" d="M246 1122q0 72 49 121t121 49t121 -49l131 -139l88 129q16 25 30.5 50t14.5 56t-13.5 57.5t-33 47t-45 33t-50.5 12.5q-41 0 -77.5 -17.5t-65.5 -46.5l-174 181q61 63 143 99t177 36q94 0 166.5 -35t122.5 -92.5t76 -128t26 -144.5q0 -66 -18.5 -122t-61.5 -115 l-133 -182l514 -545h-355l-546 579q-10 -4 -18.5 -4h-18.5q-72 0 -121 49.5t-49 120.5z" />
<glyph unicode="3" horiz-adv-x="1243" d="M123 487q39 39 79 84t66 99q-30 43 -30 98q0 72 49 121t121 49t121 -49t49 -121q0 -25 -7.5 -46.5t-17.5 -41.5q51 -55 135 -55q39 0 74 14t60.5 40t41 60.5t15.5 73.5q0 72 -48.5 126t-117.5 65h-86v231h49q53 0 90 36t37 89t-37 90t-90 37q-35 0 -64.5 -19.5 t-46.5 -48.5l-182 185q53 63 128 100t165 37q80 0 148.5 -30t120.5 -82t82 -120.5t30 -148.5q0 -59 -17.5 -122.5t-48.5 -117.5q59 -59 94 -138t35 -171q0 -90 -33.5 -169t-92 -138.5t-138.5 -93t-170 -33.5q-78 0 -146.5 24.5t-125.5 69.5q-31 -39 -66 -77t-72 -68z" />
<glyph unicode="4" horiz-adv-x="1421" d="M123 1565l188 176l400 -422l399 422l188 -176q-45 -47 -94 -101q-43 -45 -96 -102t-111 -117q-29 -29 -55.5 -58.5t-50.5 -58.5q20 -23 41 -45q16 -18 35.5 -39.5t31.5 -35.5q43 -51 68 -115t25 -135q0 -80 -30 -148.5t-82 -121t-120.5 -82t-148.5 -29.5 q-78 0 -146.5 29.5t-121 82t-83 121t-30.5 148.5q0 72 24.5 135t67.5 115q12 14 30.5 35.5t34.5 39.5q20 23 43 45q-23 29 -50 59t-56 58q-57 59 -111.5 116.5t-95.5 102.5q-51 53 -94 101zM588 758q0 -51 37 -86t86 -35q53 0 88 35t35 86q0 23 -8.5 42t-20.5 36l-94 100 l-93 -100q-31 -35 -30 -78z" />
<glyph unicode="5" horiz-adv-x="1392" d="M123 1346q0 47 11 90t30 84q14 29 32.5 54t41.5 50q53 53 127.5 88t160.5 35t163 -35t132 -92l-194 -156q-18 18 -45 26.5t-56 8.5q-57 0 -96 -33q-27 -23 -42 -50t-17 -62v-8q0 -63 44.5 -107.5t110.5 -44.5h371q23 41 63.5 66.5t88.5 25.5q72 0 121 -49t49 -121 q0 -76 -56 -125q53 -72 80 -156.5t27 -175.5q0 -70 -29 -147.5t-70 -134.5h-278q59 61 95 139t36 148q0 33 -1 65.5t-12.5 68.5t-36 72.5t-73.5 77.5h-375q-84 0 -156.5 32t-128 85t-87 126t-31.5 155z" />
<glyph unicode="6" horiz-adv-x="1376" d="M123 813q0 96 37 178t102 142q-76 98 -76 227q0 80 30 148.5t81 120.5t120.5 82t147.5 30q88 0 163 -37t128 -98l-182 -187q-33 63 -109 64q-51 0 -88 -35t-37 -88q0 -51 37 -88t88 -37l51 -250q-12 -2 -25 -3t-26 -1q-41 0 -86 10q-51 -23 -82.5 -70t-31.5 -106 q0 -39 15 -73.5t40.5 -60.5t60.5 -40t74 -14q78 0 133 55q-25 37 -24 88q0 72 49 121t121 49t121 -49t49 -121q0 -51 -31 -98q25 -53 65.5 -98.5t79.5 -84.5l-153 -161q-39 31 -74 67.5t-66 77.5q-55 -45 -123.5 -69.5t-144.5 -24.5q-90 0 -170 33.5t-138.5 93t-92 138.5 t-33.5 169z" />
<glyph unicode="7" horiz-adv-x="1476" d="M125 772q0 80 36 141.5t75 114.5l585 713l207 -150q-133 -160 -246 -303q-49 -61 -99 -122.5t-95 -118t-82 -102.5t-60 -75q-29 -35 -28 -36q-20 -29 -23.5 -64t8 -64.5t36 -50t57.5 -20.5h194q12 0 19 2q-33 49 -33 108q0 82 57.5 139.5t138.5 57.5q39 0 74 -15.5 t61.5 -41t42 -61t15.5 -74.5q0 -84 -30.5 -153t-82 -118t-119 -75.5t-143.5 -26.5h-207q-156 10 -260 123q-51 55 -76.5 125.5t-21.5 146.5z" />
<glyph unicode="8" horiz-adv-x="1216" d="M123 756q0 72 24.5 136t67.5 116q12 14 31.5 35.5t36.5 39.5q20 23 43 45l178 189l78 80l323 342l189 -174q-45 -47 -95 -101q-41 -45 -95 -102t-109 -117q-29 -31 -56.5 -59.5t-52.5 -57.5q-41 -41 -73.5 -75.5t-57.5 -61.5q-29 -31 -51 -57l-92 -100q-29 -33 -29 -78 q0 -49 36 -85t85 -36t86 36t37 85h260q0 -80 -30 -148.5t-82 -121t-121.5 -82t-149.5 -29.5t-148.5 29.5t-121 82t-82 121t-29.5 148.5z" />
<glyph unicode="9" horiz-adv-x="1005" d="M123 1360q0 80 29.5 148.5t81 120.5t120 82t148.5 30t148.5 -30t120.5 -82t82 -120.5t30 -148.5q0 -129 -73 -225.5t-187 -135.5q49 -55 95 -110t83 -109.5t59.5 -104.5t22.5 -95v-203h-260v164q0 78 -57.5 153.5t-135.5 155.5t-156.5 168t-119.5 188q-31 70 -31 154z M381 1360q0 -49 34 -85t87 -36q51 0 86 35t35 86t-35 86t-86 35t-86 -35t-35 -86z" />
<glyph unicode=":" horiz-adv-x="501" d="M123 377v254h256v-254h-256zM123 1186v254h256v-254h-256z" />
<glyph unicode=";" horiz-adv-x="501" d="M123 20v111q66 16 101.5 75.5t35.5 131.5v39h-137v254h256v-269q0 -55 -16.5 -110t-48 -102.5t-80 -81t-111.5 -48.5zM123 1186v254h256v-254h-256z" />
<glyph unicode="&#x3c;" horiz-adv-x="1626" d="M123 1149l1051 1149h329l-1028 -1149l1028 -1149h-329z" />
<glyph unicode="=" horiz-adv-x="1005" d="M123 780v213h760v-213h-760zM123 1143v215h760v-215h-760z" />
<glyph unicode="&#x3e;" horiz-adv-x="1626" d="M123 0l1028 1149l-1028 1149h330l1050 -1149l-1050 -1149h-330z" />
<glyph unicode="?" horiz-adv-x="1200" d="M123 1843q0 98 38 186.5t102.5 153t150.5 102t184 37.5t186 -37.5t152.5 -102t102.5 -152.5t38 -187q0 -78 -25.5 -145.5t-67.5 -129t-97.5 -118t-116.5 -111.5q-78 -72 -122 -135t-67.5 -115.5t-29.5 -91.5t-6 -61v-178h-252v198q0 109 46 222.5t175 248.5 q68 72 123 129.5t93 105.5t58.5 92t20.5 87q0 92 -60.5 153.5t-152.5 61.5q-43 0 -80 -16.5t-65.5 -46t-45 -68.5t-16.5 -84q0 -59 33 -108l-186 -195q-53 61 -83 140t-30 165zM293 377v252h252v-252h-252z" />
<glyph unicode="@" horiz-adv-x="2142" d="M123 909q0 193 75.5 364t206 298t302.5 201.5t364 74.5q193 0 365 -74.5t302 -201.5t205.5 -298t75.5 -364v-438q0 -18 -7 -73.5t-43 -115t-111.5 -105.5t-210.5 -46q-100 0 -166 25.5t-107 63.5t-61.5 83t-27.5 83t-7 62v25v35q-92 -49 -205 -49q-96 0 -179 35.5 t-146.5 98t-99.5 145.5t-36 177t35 178.5t96.5 147t143.5 98t178 35.5q100 0 186 -37t148.5 -103.5t97.5 -156.5t35 -194v-410q0 -2 1 -20.5t10 -39t32.5 -37t69.5 -16.5q59 0 88.5 31t29.5 82v430q0 139 -55 263t-150.5 216.5t-221.5 146.5t-265 54t-265 -54t-221.5 -146.5 t-150.5 -216.5t-55 -263q0 -141 56.5 -260t151.5 -206t221 -136t263 -49h55q20 -53 58 -102q33 -41 87 -84t140 -66h-340q-188 0 -360 68.5t-303.5 190.5t-208 288.5t-76.5 361.5zM868 911q0 -41 15.5 -78.5t43 -65.5t65.5 -44t81 -16q41 0 78 16t65.5 44t45 65.5t16.5 78.5 q0 43 -16.5 80t-45 64.5t-65.5 44t-78 16.5q-43 0 -81 -16.5t-65.5 -44t-43 -64.5t-15.5 -80z" />
<glyph unicode="A" horiz-adv-x="1615" d="M102 825v25.5t2 26.5h256q-6 -25 -6 -54q0 -41 15.5 -75.5t43 -62.5t62.5 -43t76 -15q43 0 80 15t64.5 43t43 62.5t15.5 75.5q0 86 -58.5 144.5t-144.5 58.5q-37 0 -68 -12v258q33 6 68 6q53 0 106 -12q45 39 45 108q0 59 -42 101.5t-101 42.5q-51 0 -89 -30t-48 -77 l-225 141q49 98 141 156.5t209 58.5q82 0 153.5 -30.5t126 -85t85 -126t30.5 -153.5q0 -29 -4 -54.5t-10 -49.5h278v250h-174q-16 66 -54 125t-87 98h727v-223h-160v-1141h-252v641h-243q20 -45 31.5 -92t11.5 -101q0 -127 -68 -237.5t-184 -167.5q-90 -45 -201 -45 q-92 0 -174 35.5t-143.5 97t-97.5 143.5t-36 174z" />
<glyph unicode="B" horiz-adv-x="1392" d="M-2 1518v223h1397v-223h-205v-1141h-252v186q-94 -47 -201 -47q-92 0 -174 36t-143.5 97.5t-97 143t-35.5 174.5q0 135 69.5 241.5t180.5 163.5q90 47 200 47q106 0 201 -47v146h-940zM539 967q0 -41 15 -77t43 -63.5t63.5 -43t76.5 -15.5q29 0 64 10l-252 252 q-10 -35 -10 -63zM670 1155l256 -256q12 31 12 68q0 84 -58.5 142t-142.5 58q-37 0 -67 -12z" />
<glyph unicode="C" horiz-adv-x="1716" d="M-2 1518v223h1720v-223h-735v-150q47 23 96 35t103 12q94 0 176 -36t143.5 -97t97 -143t35.5 -176q0 -92 -35.5 -174t-97 -143.5t-143.5 -97.5t-176 -36q-84 0 -164 29v309q29 -39 70.5 -62.5t91.5 -23.5q43 0 79.5 15.5t64.5 43t43 62.5t15 76q0 86 -58 144t-144 58 q-37 0 -73 -15t-63.5 -42t-44 -61.5t-16.5 -73.5v-594h-252v180q-90 -45 -201 -45q-92 0 -174 36t-143 97.5t-97 143t-36 174.5q0 94 36 176t97 143t143 97t174 36q88 0 166 -31v-309q-29 41 -71.5 64.5t-96.5 23.5q-41 0 -75.5 -15t-62.5 -43t-43 -64.5t-15 -79.5 q0 -41 15 -76t43 -62.5t62.5 -43t75.5 -15.5t78 14.5t64.5 40t44 60t16.5 73.5v566h-733z" />
<glyph unicode="D" horiz-adv-x="1183" d="M-2 1518v223h1188v-223h-160v-476h-276q-27 47 -73 76t-106 29q-41 0 -75.5 -15.5t-62 -43t-43 -64.5t-15.5 -80q0 -41 15.5 -75.5t43 -62.5t62 -43t75.5 -15h115q139 0 240 -84q61 -53 98 -127t37 -166t-37 -162t-100.5 -116t-145.5 -68.5t-170 -22.5q-72 0 -149.5 27.5 t-143 80t-108.5 128t-43 174.5q0 23 2 47t8 49q47 -47 106.5 -78t125.5 -43q2 -35 19 -64.5t46 -52t68 -36t82 -13.5q84 0 136 42t52 104q0 41 -33 81.5t-84 47.5h-119q-94 0 -176 35.5t-143 97t-96 143.5t-35 174q0 94 36 176t97 143.5t143 97.5t174 36q106 0 201 -47v166 h-776z" />
<glyph unicode="E" horiz-adv-x="1277" d="M-2 1518v223h1282v-223h-203q37 -57 57.5 -123t20.5 -140q0 -57 -12 -108h-269q16 35 21.5 68.5t5.5 66.5q0 39 -8 70q-20 76 -81.5 121t-143.5 45q-49 0 -87 -15.5t-67 -39t-46 -53.5t-26 -58q-6 -23 -6 -43v-330q0 -25 3 -43t12.5 -35.5t26 -37t42.5 -46.5l39 -31 l393 -313q94 -74 125 -147.5t31 -137.5q0 -41 -10.5 -75.5t-20.5 -59.5q-12 -29 -28 -53l-205 131q18 33 18 59q0 18 -6 33t-12 25q-8 10 -19 20l-538 428q-35 27 -55.5 66t-31 83t-13.5 94t-3 101v215q0 72 20.5 138.5t57.5 124.5h-264z" />
<glyph unicode="F" horiz-adv-x="1718" d="M-2 1518v223h1722v-223h-735v-150q47 23 96 35t103 12q94 0 176 -36t143.5 -97t97 -143t35.5 -176q0 -92 -35.5 -174t-97 -143.5t-143.5 -97.5t-176 -36q-84 0 -164 29v309q29 -39 71 -62.5t91 -23.5q43 0 79.5 15.5t64.5 43t43 62.5t15 76q0 86 -58 144t-144 58 q-37 0 -73 -15t-63.5 -42t-44 -61.5t-16.5 -73.5v-594h-252v393q-14 -23 -39.5 -37t-54.5 -24.5t-60.5 -14.5t-58.5 -4q-84 0 -153.5 30t-119.5 79t-78 114.5t-28 137.5v467h-143zM393 1061q2 -29 18.5 -50.5t40 -37t51 -22.5t50.5 -7q66 0 113 39t67 92v443h-340v-457z" />
<glyph unicode="G" horiz-adv-x="1435" d="M-2 1518v223h1440v-223h-84v-1141h-252v1141h-285q53 -92 77 -193.5t24 -204.5q0 -115 -26 -216t-80 -178t-135 -122t-192 -45q-84 0 -157.5 32t-129 87t-87 129t-31.5 158t31.5 157.5t87 129t129 87t157.5 31.5q88 0 164 -35q-10 45 -36.5 96.5t-63.5 86.5h-551z M319 965q0 -70 48.5 -118t117.5 -48q70 0 118 48t48 118t-48 117.5t-118 47.5t-118 -47.5t-48 -117.5z" />
<glyph unicode="H" horiz-adv-x="1114" d="M-2 1518v223h1118v-223h-139v-312h-186q-63 0 -100.5 -29.5t-37.5 -70.5q0 -37 30 -77t66.5 -74.5t71.5 -61.5t45 -35q68 -57 96.5 -138t28.5 -177v-23h-252v21q0 78 -36.5 131t-114.5 53t-116 -53.5t-38 -130.5v-99q0 -111 67.5 -166t172.5 -55h317v-221h-317 q-135 0 -240 43q-115 47 -182.5 146.5t-67.5 254.5v99q0 129 70 230t180 149q16 8 36 14t38 10q-20 18 -37 45q-14 23 -25.5 56.5t-11.5 76.5q0 39 14.5 88.5t46 92.5t84 71.5t130.5 30.5h16v111h-727z" />
<glyph unicode="I" horiz-adv-x="1128" d="M-2 1518v223h610v248q0 84 29 143t74 96t101 53.5t110 16.5h102v-236h-66q-47 0 -69.5 -22.5t-22.5 -50.5v-248h264v-223h-264v-304h-409q-59 0 -86 -26.5t-27 -67.5q0 -35 27.5 -62.5t87.5 -27.5h223q100 0 184 -22q111 -31 172.5 -107t61.5 -205q0 -174 -99.5 -246.5 t-310.5 -72.5h-117v-377h-258v375q-66 16 -108.5 68.5t-42.5 119.5q0 39 16.5 76t44 63.5t65.5 43t79 16.5q78 0 133 -48t69 -116h144q53 0 93 22.5t40 81.5q0 47 -31 77t-115 30h-239q-94 0 -160.5 24.5t-109.5 67.5t-63.5 100.5t-20.5 120.5q0 61 20.5 117.5t60 99.5 t100 70t140.5 27h178v82h-610z" />
<glyph unicode="J" horiz-adv-x="1607" d="M-2 1518v223h1612v-223h-180v-1141h-252v747h-217v-37q0 -96 -36 -179t-98.5 -145.5t-146.5 -98t-178 -35.5q-96 0 -179 35.5t-146.5 98t-99.5 145.5t-36 179q0 158 92 269h262q-41 -45 -60.5 -91t-29.5 -87q-10 -47 -12 -91q0 -41 16.5 -78.5t44 -66.5t66.5 -45t82 -16 t81 16t65.5 44t44 65.5t16.5 80.5v269h467v162h-1178z" />
<glyph unicode="K" horiz-adv-x="1718" d="M-2 1518v223h1722v-223h-735v-150q90 47 199 47q102 0 190 -41q57 -27 106.5 -68.5t83 -95t53 -117t19.5 -130.5q0 -111 -48 -203t-128 -154q-57 -45 -127.5 -69.5t-148.5 -24.5q-53 0 -103.5 12.5t-95.5 34.5v-182h-252v180q-94 -45 -201 -45q-92 0 -174 36t-143 97.5 t-97 143t-36 174.5q0 94 36 176t97 143t143 97t174 36q88 0 166 -31v-309q-29 41 -71.5 64.5t-96.5 23.5q-41 0 -75.5 -15t-62 -43t-43 -64.5t-15.5 -79.5q0 -41 15.5 -76t43 -62.5t62 -43t75.5 -15.5q39 0 76 14.5t64.5 39t44 57t18.5 69.5v19v555h-735zM985 961 q0 -55 34 -107.5t93 -77.5q31 -12 70 -12q43 0 79.5 15.5t64.5 43t43 62.5t15 76q0 29 -10 63q-18 53 -63 92q-27 23 -59.5 35t-69.5 12q-41 0 -76 -15t-62.5 -43t-43 -64.5t-15.5 -79.5z" />
<glyph unicode="L" horiz-adv-x="1781" d="M-2 1518v223h1786v-223h-125v-1141h-252v698q-119 0 -183.5 -64.5t-64.5 -187.5v-82h-241v82q0 86 -58.5 144.5t-144.5 58.5q-41 0 -76 -15.5t-62.5 -43t-43 -64.5t-15.5 -80q0 -41 15.5 -75.5t43 -62.5t62.5 -43t76 -15v-252q-92 0 -174 35.5t-143.5 97t-96.5 143.5 t-35 174q0 135 70 243t182 163q90 47 199 47q96 0 180 -37t145 -102q68 92 155 125.5t210 33.5v220h-1409z" />
<glyph unicode="M" horiz-adv-x="1751" d="M-2 1518v223h1503v-223h-346v-1141h-252v594h-373q0 -47 -17 -88t-48 -71t-72 -47t-86 -17q-47 0 -88 17t-71.5 47t-48 71t-17.5 88t17.5 88t48 71.5t71.5 48t88 17.5v322h-309zM559 1196h344v322h-344v-322z" />
<glyph unicode="N" horiz-adv-x="1650" d="M-2 1518v223h1655v-223h-125v-1141h-252v704h-272q49 -92 49 -204q0 -133 -71 -241t-181 -165q-47 -23 -98.5 -36t-104.5 -13t-104.5 13.5t-98.5 35.5q-113 57 -182.5 164.5t-69.5 241.5q0 92 36 175t98.5 145.5t145.5 99t175 36.5h678v185h-1278zM395 877 q0 -41 16.5 -78t44 -64.5t64.5 -44t78 -16.5t78 16.5t64.5 44t44 64.5t16.5 78t-16.5 77.5t-44 64.5t-64.5 44t-78 16t-78 -16t-64.5 -44t-44 -64.5t-16.5 -77.5z" />
<glyph unicode="O" horiz-adv-x="2004" d="M61 825v25.5t2 26.5h256q-6 -25 -6 -54q0 -41 15.5 -75.5t43 -62.5t62.5 -43t76 -15q43 0 80 15t64.5 43t43 62.5t15.5 75.5q0 86 -58.5 144.5t-144.5 58.5q-37 0 -68 -12v258q33 6 68 6q51 0 98 -10q23 16 38.5 44.5t15.5 61.5q0 59 -42 101.5t-102 42.5q-51 0 -89 -30 t-48 -77l-225 141q49 98 141 156.5t209 58.5q82 0 153.5 -30.5t126 -85t85 -126t30.5 -153.5q0 -29 -4 -54.5t-10 -49.5h278v250h-174q-16 66 -54 125t-87 98h694l-254 272q-10 12 -24 21q-12 8 -29.5 15t-38.5 7q-20 0 -42.5 -8t-47.5 -31l-158 172q12 8 19 15q27 25 63 47 q31 18 73 33.5t95 15.5q66 0 144.5 -35t164.5 -127l344 -397h154v-223h-125v-1141h-252v1141h-213v-1141h-252v641h-243q20 -43 31.5 -91t11.5 -102q0 -127 -68 -237.5t-184 -167.5q-90 -45 -201 -45q-92 0 -174 35.5t-143.5 97t-97.5 143.5t-36 174z" />
<glyph unicode="P" horiz-adv-x="1105" d="M-2 1518v223h1110v-223h-84v-1141h-252v287q-94 -47 -199 -48q-104 0 -198 46q-113 55 -182.5 163.5t-69.5 241.5v451h-125zM375 1067q0 -41 16.5 -77t43 -62.5t62 -43t76.5 -16.5q39 0 76 16.5t63.5 43t43 62.5t16.5 77v451h-397v-451z" />
<glyph unicode="Q" horiz-adv-x="2418" d="M-2 1518v223h2423v-223h-84v-1143h-262v327q-47 -27 -112 -40t-124 -13q-86 0 -167 29t-146.5 81t-111.5 121.5t-64 153.5q-27 43 -71 71t-97 28q-39 0 -75 -13.5t-63.5 -37t-44 -55.5t-16.5 -71v-577h-252v172q-90 -47 -199 -47q-92 0 -174 35.5t-143 97t-97 143.5 t-36 174t36 174t97 143.5t143 97.5t174 36q109 0 199 -47v160h-733zM334 954q0 -41 16.5 -76.5t43 -62.5t62.5 -43t76 -16q39 0 76 16t63.5 43t43 62.5t16.5 76.5q0 39 -16.5 76t-43 63.5t-63.5 43t-76 16.5q-41 0 -76.5 -16.5t-62 -43t-43 -63.5t-16.5 -76zM983 1337 q90 47 199 47q106 0 197 -46t153 -124q49 10 93 45t44 111q0 35 -10 62.5t-21 46.5q-12 23 -28 39h-627v-181zM1645 1008q29 -43 85 -70t113 -27q43 0 85 16.5t75 45t53.5 66.5t20.5 81v398h-213q12 -20 22 -50q10 -25 17.5 -59.5t7.5 -75.5q0 -43 -13.5 -91t-44 -92 t-82 -82t-126.5 -60z" />
<glyph unicode="R" horiz-adv-x="1150" d="M-2 1518v223h1155v-223h-416q35 -57 54.5 -127t19.5 -152v-12q0 -82 -21.5 -161t-60.5 -146.5t-95 -119.5t-126 -83q-12 -4 -24.5 -8t-24.5 -9q8 -25 17 -44t23.5 -32.5t35 -20.5t53.5 -7q29 0 52.5 6t39.5 12l76 -237q-98 -29 -185 -29q-78 0 -133 21.5t-97 62.5 t-72.5 103.5t-57.5 146.5h-86v254h176q70 0 121 28.5t86 77.5q51 76 51 185q0 61 -17.5 114.5t-50 92.5t-81 61.5t-109.5 22.5h-303z" />
<glyph unicode="S" horiz-adv-x="1579" d="M-2 1518v223h590h993v-223h-125v-1141h-252v500h-538l28 -78q14 -31 29.5 -61.5t33 -56.5t39 -41t50.5 -15t52.5 6t39.5 12l76 -237q-45 -23 -92.5 -36.5t-92.5 -13.5q-78 0 -133 26t-97 72t-74.5 111.5t-65.5 147.5l-86 211q-92 49 -152.5 133t-77.5 188h260 q23 -53 74 -88t111 -35q39 0 75.5 16.5t63.5 43t43 62.5t16 77q0 39 -16 75t-44 63.5t-63.5 43t-74.5 15.5h-590zM989 1518q23 -43 36 -92.5t13 -104.5q0 -111 -47 -201h213v398h-215z" />
<glyph unicode="T" horiz-adv-x="1413" d="M-2 1518v223h1417v-223h-237v-379h-361q-57 0 -108.5 -21.5t-89 -59.5t-59 -89t-21.5 -109q0 -57 22.5 -108.5t60 -89t89 -60t108.5 -22.5q92 0 161 51t99 129l232 -105q-31 -72 -80 -132t-112.5 -103t-140.5 -67.5t-159 -24.5q-111 0 -208 42t-168.5 113.5t-113.5 169 t-42 207.5q0 145 68.5 264t183.5 191q127 80 280 80h96v123h-917z" />
<glyph unicode="U" horiz-adv-x="1105" d="M-2 1518v223h1110v-223h-231q35 -35 48 -77t13 -79q0 -82 -40 -134t-77 -65q18 -6 46 -27.5t53.5 -55t44 -79t18.5 -98.5v-452q0 -92 -36 -174t-97.5 -143.5t-143 -97.5t-174.5 -36q-92 0 -174 36t-143 96.5t-97 142t-36 174.5v440h252v-438q0 -41 16.5 -77t43 -62.5 t62.5 -43t76 -16.5q39 0 76 16.5t63.5 43t43 62.5t16.5 77v438q0 59 -41 101t-100 42h-154v221h105q59 0 97 37t38 94q0 55 -37 94.5t-96 39.5h-545z" />
<glyph unicode="V" horiz-adv-x="1103" d="M-2 1518v223h1108v-223h-125v-564v-577h-252v172q-96 -45 -199 -45q-92 0 -174 35.5t-143 97t-97 143.5t-36 174q0 131 68.5 238.5t183.5 165.5q90 47 198 47q104 0 199 -47v160h-731zM332 954q0 -41 16.5 -76.5t43 -63.5t62 -43t76.5 -15q39 0 76 16t63.5 44t43 66 t16.5 81q0 39 -16.5 72.5t-44 60t-63.5 42t-75 15.5t-74.5 -15.5t-63 -43t-44 -63.5t-16.5 -77z" />
<glyph unicode="W" horiz-adv-x="1902" d="M-2 1518v223h1907v-223h-111v-564v-577h-252v172q-96 -45 -199 -45q-96 0 -180 37t-145 102q-59 61 -92 140t-33 171q0 82 27.5 154t74.5 131q61 76 152.5 121t195.5 45t199 -47v160h-1544zM1145 954q0 -41 16.5 -76.5t43 -63.5t62.5 -43t76 -15q39 0 76 16t63.5 44 t43 66t16.5 81q0 39 -16.5 72.5t-44 60t-63.5 42t-75 15.5q-47 0 -89 -22.5t-70 -61.5q-39 -52 -39 -115z" />
<glyph unicode="X" horiz-adv-x="1636" d="M82 901q0 88 21.5 156.5t54 120t70.5 86t69 57.5q-49 53 -78 121.5t-29 146.5q0 80 31 151.5t83 124t123 83t151 30.5t151.5 -30.5t123.5 -83t83 -124t31 -151.5t-31 -150.5t-84 -123.5q-43 -41 -121 -79t-168 -38q-16 0 -53 -14.5t-77 -48t-69.5 -91t-29.5 -143.5 q0 -92 54 -159.5t147 -84.5q-2 14 -3.5 27.5t-1.5 28.5q0 57 20.5 108t56.5 89t84 62.5t104 28.5q10 2 30 3q72 0 133.5 -35t100.5 -90q51 -74 51 -166q0 -53 -17.5 -99.5t-47 -83t-71.5 -63.5t-91 -37q27 -29 54.5 -58.5t49.5 -49.5l-192 -111q-78 72 -125 135.5t-62 87.5 q-68 0 -159 24.5t-172.5 80t-138 144.5t-56.5 218zM408 1589q0 -35 14 -65.5t36.5 -53t53.5 -37t66 -14.5t65.5 14.5t54 37t38 53t14.5 65.5q0 45 -22.5 84t-59.5 62q-41 26 -87 26h-3q-41 0 -78 -20q-41 -23 -66.5 -64t-25.5 -88zM745 713q0 -31 21.5 -53.5t54.5 -22.5 q31 0 53.5 22.5t22.5 53.5q0 33 -22.5 54t-53.5 21q-33 0 -54.5 -21t-21.5 -54zM958 1315h345v203h-263q6 39 7 71q0 37 -6.5 74t-22.5 78h620v-223h-84v-1141h-251v686h-195q-10 57 -35.5 102t-50.5 80q-31 37 -64 70z" />
<glyph unicode="Y" horiz-adv-x="1187" d="M-2 1518v223h1192v-223h-125v-1141h-231v297q-49 -35 -109.5 -51.5t-151.5 -16.5q-92 0 -181 36t-157.5 97.5t-110.5 143.5t-42 174v194h252q41 0 72.5 42t31.5 91q0 33 -12 57.5t-27.5 41t-30 26t-18.5 9.5h-352zM344 1018q23 -61 88.5 -100t140.5 -39q47 0 90.5 14 t77 39.5t53 62.5t19.5 82v441h-195q12 -25 23 -52q10 -25 17.5 -56.5t7.5 -72.5q0 -66 -26 -123t-70 -101t-102 -69.5t-124 -25.5z" />
<glyph unicode="Z" horiz-adv-x="1505" d="M-2 1518v223h1509v-223h-125v-1141h-252v743h-151v-51q0 -92 -36 -174t-97.5 -143.5t-143 -97.5t-174.5 -36q-92 0 -174 36t-142 97.5t-96 143.5t-36 174q0 84 27.5 154.5t76.5 130.5h285q-72 -59 -105.5 -129t-33.5 -156q0 -41 16 -77t43 -62.5t62.5 -43t76.5 -16.5 q39 0 76 16.5t63.5 43t43 62.5t16.5 77v285h403v164h-524h-608zM395 444q0 55 39 94.5t94 39.5t94.5 -39t39.5 -95q0 -55 -39 -94t-95 -39q-55 0 -94 39t-39 94z" />
<glyph unicode="[" horiz-adv-x="845" d="M82 1147q0 168 29.5 336t85 320.5t132.5 279.5t173 215h262q-94 -88 -175 -210t-140.5 -270.5t-93 -318.5t-33.5 -352t33.5 -350t93 -315.5t139.5 -270.5t172 -211h-264q-92 88 -169 216t-131.5 279.5t-84 318.5t-29.5 333z" />
<glyph unicode="\" horiz-adv-x="1163" d="M82 2298h270l729 -2298h-268z" />
<glyph unicode="]" horiz-adv-x="845" d="M82 2298h262q94 -88 172 -215t133.5 -279.5t85 -320.5t29.5 -336q0 -166 -29.5 -333t-84 -318.5t-131.5 -279.5t-169 -216h-264q92 88 172 211t139.5 270.5t93 315.5t33.5 350t-33.5 352t-93 318.5t-140.5 270.5t-175 210z" />
<glyph unicode="^" horiz-adv-x="1406" d="M123 1505l582 793l579 -793h-295l-287 383l-284 -383h-295z" />
<glyph unicode="_" horiz-adv-x="452" d="M0 1518v223h453v-223h-453z" />
<glyph unicode="`" />
<glyph unicode="a" horiz-adv-x="1615" d="M102 825v25.5t2 26.5h256q-6 -25 -6 -54q0 -41 15.5 -75.5t43 -62.5t62.5 -43t76 -15q43 0 80 15t64.5 43t43 62.5t15.5 75.5q0 86 -58.5 144.5t-144.5 58.5q-37 0 -68 -12v258q33 6 68 6q53 0 106 -12q45 39 45 108q0 59 -42 101.5t-101 42.5q-51 0 -89 -30t-48 -77 l-225 141q49 98 141 156.5t209 58.5q82 0 153.5 -30.5t126 -85t85 -126t30.5 -153.5q0 -29 -4 -54.5t-10 -49.5h278v250h-174q-16 66 -54 125t-87 98h727v-223h-160v-1141h-252v641h-243q20 -45 31.5 -92t11.5 -101q0 -127 -68 -237.5t-184 -167.5q-90 -45 -201 -45 q-92 0 -174 35.5t-143.5 97t-97.5 143.5t-36 174z" />
<glyph unicode="b" horiz-adv-x="1392" d="M-2 1518v223h1397v-223h-205v-1141h-252v186q-94 -47 -201 -47q-92 0 -174 36t-143.5 97.5t-97 143t-35.5 174.5q0 135 69.5 241.5t180.5 163.5q90 47 200 47q106 0 201 -47v146h-940zM539 967q0 -41 15 -77t43 -63.5t63.5 -43t76.5 -15.5q29 0 64 10l-252 252 q-10 -35 -10 -63zM670 1155l256 -256q12 31 12 68q0 84 -58.5 142t-142.5 58q-37 0 -67 -12z" />
<glyph unicode="c" horiz-adv-x="1716" d="M-2 1518v223h1720v-223h-735v-150q47 23 96 35t103 12q94 0 176 -36t143.5 -97t97 -143t35.5 -176q0 -92 -35.5 -174t-97 -143.5t-143.5 -97.5t-176 -36q-84 0 -164 29v309q29 -39 70.5 -62.5t91.5 -23.5q43 0 79.5 15.5t64.5 43t43 62.5t15 76q0 86 -58 144t-144 58 q-37 0 -73 -15t-63.5 -42t-44 -61.5t-16.5 -73.5v-594h-252v180q-90 -45 -201 -45q-92 0 -174 36t-143 97.5t-97 143t-36 174.5q0 94 36 176t97 143t143 97t174 36q88 0 166 -31v-309q-29 41 -71.5 64.5t-96.5 23.5q-41 0 -75.5 -15t-62.5 -43t-43 -64.5t-15 -79.5 q0 -41 15 -76t43 -62.5t62.5 -43t75.5 -15.5t78 14.5t64.5 40t44 60t16.5 73.5v566h-733z" />
<glyph unicode="d" horiz-adv-x="1183" d="M-2 1518v223h1188v-223h-160v-476h-276q-27 47 -73 76t-106 29q-41 0 -75.5 -15.5t-62 -43t-43 -64.5t-15.5 -80q0 -41 15.5 -75.5t43 -62.5t62 -43t75.5 -15h115q139 0 240 -84q61 -53 98 -127t37 -166t-37 -162t-100.5 -116t-145.5 -68.5t-170 -22.5q-72 0 -149.5 27.5 t-143 80t-108.5 128t-43 174.5q0 23 2 47t8 49q47 -47 106.5 -78t125.5 -43q2 -35 19 -64.5t46 -52t68 -36t82 -13.5q84 0 136 42t52 104q0 41 -33 81.5t-84 47.5h-119q-94 0 -176 35.5t-143 97t-96 143.5t-35 174q0 94 36 176t97 143.5t143 97.5t174 36q106 0 201 -47v166 h-776z" />
<glyph unicode="e" horiz-adv-x="1277" d="M-2 1518v223h1282v-223h-203q37 -57 57.5 -123t20.5 -140q0 -57 -12 -108h-269q16 35 21.5 68.5t5.5 66.5q0 39 -8 70q-20 76 -81.5 121t-143.5 45q-49 0 -87 -15.5t-67 -39t-46 -53.5t-26 -58q-6 -23 -6 -43v-330q0 -25 3 -43t12.5 -35.5t26 -37t42.5 -46.5l39 -31 l393 -313q94 -74 125 -147.5t31 -137.5q0 -41 -10.5 -75.5t-20.5 -59.5q-12 -29 -28 -53l-205 131q18 33 18 59q0 18 -6 33t-12 25q-8 10 -19 20l-538 428q-35 27 -55.5 66t-31 83t-13.5 94t-3 101v215q0 72 20.5 138.5t57.5 124.5h-264z" />
<glyph unicode="f" horiz-adv-x="1718" d="M-2 1518v223h1722v-223h-735v-150q47 23 96 35t103 12q94 0 176 -36t143.5 -97t97 -143t35.5 -176q0 -92 -35.5 -174t-97 -143.5t-143.5 -97.5t-176 -36q-84 0 -164 29v309q29 -39 71 -62.5t91 -23.5q43 0 79.5 15.5t64.5 43t43 62.5t15 76q0 86 -58 144t-144 58 q-37 0 -73 -15t-63.5 -42t-44 -61.5t-16.5 -73.5v-594h-252v393q-14 -23 -39.5 -37t-54.5 -24.5t-60.5 -14.5t-58.5 -4q-84 0 -153.5 30t-119.5 79t-78 114.5t-28 137.5v467h-143zM393 1061q2 -29 18.5 -50.5t40 -37t51 -22.5t50.5 -7q66 0 113 39t67 92v443h-340v-457z" />
<glyph unicode="g" horiz-adv-x="1435" d="M-2 1518v223h1440v-223h-84v-1141h-252v1141h-285q53 -92 77 -193.5t24 -204.5q0 -115 -26 -216t-80 -178t-135 -122t-192 -45q-84 0 -157.5 32t-129 87t-87 129t-31.5 158t31.5 157.5t87 129t129 87t157.5 31.5q88 0 164 -35q-10 45 -36.5 96.5t-63.5 86.5h-551z M319 965q0 -70 48.5 -118t117.5 -48q70 0 118 48t48 118t-48 117.5t-118 47.5t-118 -47.5t-48 -117.5z" />
<glyph unicode="h" horiz-adv-x="1114" d="M-2 1518v223h1118v-223h-139v-312h-186q-63 0 -100.5 -29.5t-37.5 -70.5q0 -37 30 -77t66.5 -74.5t71.5 -61.5t45 -35q68 -57 96.5 -138t28.5 -177v-23h-252v21q0 78 -36.5 131t-114.5 53t-116 -53.5t-38 -130.5v-99q0 -111 67.5 -166t172.5 -55h317v-221h-317 q-135 0 -240 43q-115 47 -182.5 146.5t-67.5 254.5v99q0 129 70 230t180 149q16 8 36 14t38 10q-20 18 -37 45q-14 23 -25.5 56.5t-11.5 76.5q0 39 14.5 88.5t46 92.5t84 71.5t130.5 30.5h16v111h-727z" />
<glyph unicode="i" horiz-adv-x="1128" d="M-2 1518v223h610v248q0 84 29 143t74 96t101 53.5t110 16.5h102v-236h-66q-47 0 -69.5 -22.5t-22.5 -50.5v-248h264v-223h-264v-304h-409q-59 0 -86 -26.5t-27 -67.5q0 -35 27.5 -62.5t87.5 -27.5h223q100 0 184 -22q111 -31 172.5 -107t61.5 -205q0 -174 -99.5 -246.5 t-310.5 -72.5h-117v-377h-258v375q-66 16 -108.5 68.5t-42.5 119.5q0 39 16.5 76t44 63.5t65.5 43t79 16.5q78 0 133 -48t69 -116h144q53 0 93 22.5t40 81.5q0 47 -31 77t-115 30h-239q-94 0 -160.5 24.5t-109.5 67.5t-63.5 100.5t-20.5 120.5q0 61 20.5 117.5t60 99.5 t100 70t140.5 27h178v82h-610z" />
<glyph unicode="j" horiz-adv-x="1607" d="M-2 1518v223h1612v-223h-180v-1141h-252v747h-217v-37q0 -96 -36 -179t-98.5 -145.5t-146.5 -98t-178 -35.5q-96 0 -179 35.5t-146.5 98t-99.5 145.5t-36 179q0 158 92 269h262q-41 -45 -60.5 -91t-29.5 -87q-10 -47 -12 -91q0 -41 16.5 -78.5t44 -66.5t66.5 -45t82 -16 t81 16t65.5 44t44 65.5t16.5 80.5v269h467v162h-1178z" />
<glyph unicode="k" horiz-adv-x="1718" d="M-2 1518v223h1722v-223h-735v-150q90 47 199 47q102 0 190 -41q57 -27 106.5 -68.5t83 -95t53 -117t19.5 -130.5q0 -111 -48 -203t-128 -154q-57 -45 -127.5 -69.5t-148.5 -24.5q-53 0 -103.5 12.5t-95.5 34.5v-182h-252v180q-94 -45 -201 -45q-92 0 -174 36t-143 97.5 t-97 143t-36 174.5q0 94 36 176t97 143t143 97t174 36q88 0 166 -31v-309q-29 41 -71.5 64.5t-96.5 23.5q-41 0 -75.5 -15t-62 -43t-43 -64.5t-15.5 -79.5q0 -41 15.5 -76t43 -62.5t62 -43t75.5 -15.5q39 0 76 14.5t64.5 39t44 57t18.5 69.5v19v555h-735zM985 961 q0 -55 34 -107.5t93 -77.5q31 -12 70 -12q43 0 79.5 15.5t64.5 43t43 62.5t15 76q0 29 -10 63q-18 53 -63 92q-27 23 -59.5 35t-69.5 12q-41 0 -76 -15t-62.5 -43t-43 -64.5t-15.5 -79.5z" />
<glyph unicode="l" horiz-adv-x="1781" d="M-2 1518v223h1786v-223h-125v-1141h-252v698q-119 0 -183.5 -64.5t-64.5 -187.5v-82h-241v82q0 86 -58.5 144.5t-144.5 58.5q-41 0 -76 -15.5t-62.5 -43t-43 -64.5t-15.5 -80q0 -41 15.5 -75.5t43 -62.5t62.5 -43t76 -15v-252q-92 0 -174 35.5t-143.5 97t-96.5 143.5 t-35 174q0 135 70 243t182 163q90 47 199 47q96 0 180 -37t145 -102q68 92 155 125.5t210 33.5v220h-1409z" />
<glyph unicode="m" horiz-adv-x="1751" d="M-2 1518v223h1503v-223h-346v-1141h-252v594h-373q0 -47 -17 -88t-48 -71t-72 -47t-86 -17q-47 0 -88 17t-71.5 47t-48 71t-17.5 88t17.5 88t48 71.5t71.5 48t88 17.5v322h-309zM559 1196h344v322h-344v-322z" />
<glyph unicode="n" horiz-adv-x="1650" d="M-2 1518v223h1655v-223h-125v-1141h-252v704h-272q49 -92 49 -204q0 -133 -71 -241t-181 -165q-47 -23 -98.5 -36t-104.5 -13t-104.5 13.5t-98.5 35.5q-113 57 -182.5 164.5t-69.5 241.5q0 92 36 175t98.5 145.5t145.5 99t175 36.5h678v185h-1278zM395 877 q0 -41 16.5 -78t44 -64.5t64.5 -44t78 -16.5t78 16.5t64.5 44t44 64.5t16.5 78t-16.5 77.5t-44 64.5t-64.5 44t-78 16t-78 -16t-64.5 -44t-44 -64.5t-16.5 -77.5z" />
<glyph unicode="o" horiz-adv-x="2004" d="M61 825v25.5t2 26.5h256q-6 -25 -6 -54q0 -41 15.5 -75.5t43 -62.5t62.5 -43t76 -15q43 0 80 15t64.5 43t43 62.5t15.5 75.5q0 86 -58.5 144.5t-144.5 58.5q-37 0 -68 -12v258q33 6 68 6q51 0 98 -10q23 16 38.5 44.5t15.5 61.5q0 59 -42 101.5t-102 42.5q-51 0 -89 -30 t-48 -77l-225 141q49 98 141 156.5t209 58.5q82 0 153.5 -30.5t126 -85t85 -126t30.5 -153.5q0 -29 -4 -54.5t-10 -49.5h278v250h-174q-16 66 -54 125t-87 98h694l-254 272q-10 12 -24 21q-12 8 -29.5 15t-38.5 7q-20 0 -42.5 -8t-47.5 -31l-158 172q12 8 19 15q27 25 63 47 q31 18 73 33.5t95 15.5q66 0 144.5 -35t164.5 -127l344 -397h154v-223h-125v-1141h-252v1141h-213v-1141h-252v641h-243q20 -43 31.5 -91t11.5 -102q0 -127 -68 -237.5t-184 -167.5q-90 -45 -201 -45q-92 0 -174 35.5t-143.5 97t-97.5 143.5t-36 174z" />
<glyph unicode="p" horiz-adv-x="1105" d="M-2 1518v223h1110v-223h-84v-1141h-252v287q-94 -47 -199 -48q-104 0 -198 46q-113 55 -182.5 163.5t-69.5 241.5v451h-125zM375 1067q0 -41 16.5 -77t43 -62.5t62 -43t76.5 -16.5q39 0 76 16.5t63.5 43t43 62.5t16.5 77v451h-397v-451z" />
<glyph unicode="q" horiz-adv-x="2418" d="M-2 1518v223h2423v-223h-84v-1143h-262v327q-47 -27 -112 -40t-124 -13q-86 0 -167 29t-146.5 81t-111.5 121.5t-64 153.5q-27 43 -71 71t-97 28q-39 0 -75 -13.5t-63.5 -37t-44 -55.5t-16.5 -71v-577h-252v172q-90 -47 -199 -47q-92 0 -174 35.5t-143 97t-97 143.5 t-36 174t36 174t97 143.5t143 97.5t174 36q109 0 199 -47v160h-733zM334 954q0 -41 16.5 -76.5t43 -62.5t62.5 -43t76 -16q39 0 76 16t63.5 43t43 62.5t16.5 76.5q0 39 -16.5 76t-43 63.5t-63.5 43t-76 16.5q-41 0 -76.5 -16.5t-62 -43t-43 -63.5t-16.5 -76zM983 1337 q90 47 199 47q106 0 197 -46t153 -124q49 10 93 45t44 111q0 35 -10 62.5t-21 46.5q-12 23 -28 39h-627v-181zM1645 1008q29 -43 85 -70t113 -27q43 0 85 16.5t75 45t53.5 66.5t20.5 81v398h-213q12 -20 22 -50q10 -25 17.5 -59.5t7.5 -75.5q0 -43 -13.5 -91t-44 -92 t-82 -82t-126.5 -60z" />
<glyph unicode="r" horiz-adv-x="1150" d="M-2 1518v223h1155v-223h-416q35 -57 54.5 -127t19.5 -152v-12q0 -82 -21.5 -161t-60.5 -146.5t-95 -119.5t-126 -83q-12 -4 -24.5 -8t-24.5 -9q8 -25 17 -44t23.5 -32.5t35 -20.5t53.5 -7q29 0 52.5 6t39.5 12l76 -237q-98 -29 -185 -29q-78 0 -133 21.5t-97 62.5 t-72.5 103.5t-57.5 146.5h-86v254h176q70 0 121 28.5t86 77.5q51 76 51 185q0 61 -17.5 114.5t-50 92.5t-81 61.5t-109.5 22.5h-303z" />
<glyph unicode="s" horiz-adv-x="1579" d="M-2 1518v223h590h993v-223h-125v-1141h-252v500h-538l28 -78q14 -31 29.5 -61.5t33 -56.5t39 -41t50.5 -15t52.5 6t39.5 12l76 -237q-45 -23 -92.5 -36.5t-92.5 -13.5q-78 0 -133 26t-97 72t-74.5 111.5t-65.5 147.5l-86 211q-92 49 -152.5 133t-77.5 188h260 q23 -53 74 -88t111 -35q39 0 75.5 16.5t63.5 43t43 62.5t16 77q0 39 -16 75t-44 63.5t-63.5 43t-74.5 15.5h-590zM989 1518q23 -43 36 -92.5t13 -104.5q0 -111 -47 -201h213v398h-215z" />
<glyph unicode="t" horiz-adv-x="1413" d="M-2 1518v223h1417v-223h-237v-379h-361q-57 0 -108.5 -21.5t-89 -59.5t-59 -89t-21.5 -109q0 -57 22.5 -108.5t60 -89t89 -60t108.5 -22.5q92 0 161 51t99 129l232 -105q-31 -72 -80 -132t-112.5 -103t-140.5 -67.5t-159 -24.5q-111 0 -208 42t-168.5 113.5t-113.5 169 t-42 207.5q0 145 68.5 264t183.5 191q127 80 280 80h96v123h-917z" />
<glyph unicode="u" horiz-adv-x="1105" d="M-2 1518v223h1110v-223h-231q35 -35 48 -77t13 -79q0 -82 -40 -134t-77 -65q18 -6 46 -27.5t53.5 -55t44 -79t18.5 -98.5v-452q0 -92 -36 -174t-97.5 -143.5t-143 -97.5t-174.5 -36q-92 0 -174 36t-143 96.5t-97 142t-36 174.5v440h252v-438q0 -41 16.5 -77t43 -62.5 t62.5 -43t76 -16.5q39 0 76 16.5t63.5 43t43 62.5t16.5 77v438q0 59 -41 101t-100 42h-154v221h105q59 0 97 37t38 94q0 55 -37 94.5t-96 39.5h-545z" />
<glyph unicode="v" horiz-adv-x="1103" d="M-2 1518v223h1108v-223h-125v-564v-577h-252v172q-96 -45 -199 -45q-92 0 -174 35.5t-143 97t-97 143.5t-36 174q0 131 68.5 238.5t183.5 165.5q90 47 198 47q104 0 199 -47v160h-731zM332 954q0 -41 16.5 -76.5t43 -63.5t62 -43t76.5 -15q39 0 76 16t63.5 44t43 66 t16.5 81q0 39 -16.5 72.5t-44 60t-63.5 42t-75 15.5t-74.5 -15.5t-63 -43t-44 -63.5t-16.5 -77z" />
<glyph unicode="w" horiz-adv-x="1902" d="M-2 1518v223h1907v-223h-111v-564v-577h-252v172q-96 -45 -199 -45q-96 0 -180 37t-145 102q-59 61 -92 140t-33 171q0 82 27.5 154t74.5 131q61 76 152.5 121t195.5 45t199 -47v160h-1544zM1145 954q0 -41 16.5 -76.5t43 -63.5t62.5 -43t76 -15q39 0 76 16t63.5 44 t43 66t16.5 81q0 39 -16.5 72.5t-44 60t-63.5 42t-75 15.5q-47 0 -89 -22.5t-70 -61.5q-39 -52 -39 -115z" />
<glyph unicode="x" horiz-adv-x="1636" d="M82 901q0 88 21.5 156.5t54 120t70.5 86t69 57.5q-49 53 -78 121.5t-29 146.5q0 80 31 151.5t83 124t123 83t151 30.5t151.5 -30.5t123.5 -83t83 -124t31 -151.5t-31 -150.5t-84 -123.5q-43 -41 -121 -79t-168 -38q-16 0 -53 -14.5t-77 -48t-69.5 -91t-29.5 -143.5 q0 -92 54 -159.5t147 -84.5q-2 14 -3.5 27.5t-1.5 28.5q0 57 20.5 108t56.5 89t84 62.5t104 28.5q10 2 30 3q72 0 133.5 -35t100.5 -90q51 -74 51 -166q0 -53 -17.5 -99.5t-47 -83t-71.5 -63.5t-91 -37q27 -29 54.5 -58.5t49.5 -49.5l-192 -111q-78 72 -125 135.5t-62 87.5 q-68 0 -159 24.5t-172.5 80t-138 144.5t-56.5 218zM408 1589q0 -35 14 -65.5t36.5 -53t53.5 -37t66 -14.5t65.5 14.5t54 37t38 53t14.5 65.5q0 45 -22.5 84t-59.5 62q-41 26 -87 26h-3q-41 0 -78 -20q-41 -23 -66.5 -64t-25.5 -88zM745 713q0 -31 21.5 -53.5t54.5 -22.5 q31 0 53.5 22.5t22.5 53.5q0 33 -22.5 54t-53.5 21q-33 0 -54.5 -21t-21.5 -54zM958 1315h345v203h-263q6 39 7 71q0 37 -6.5 74t-22.5 78h620v-223h-84v-1141h-251v686h-195q-10 57 -35.5 102t-50.5 80q-31 37 -64 70z" />
<glyph unicode="y" horiz-adv-x="1187" d="M-2 1518v223h1192v-223h-125v-1141h-231v297q-49 -35 -109.5 -51.5t-151.5 -16.5q-92 0 -181 36t-157.5 97.5t-110.5 143.5t-42 174v194h252q41 0 72.5 42t31.5 91q0 33 -12 57.5t-27.5 41t-30 26t-18.5 9.5h-352zM344 1018q23 -61 88.5 -100t140.5 -39q47 0 90.5 14 t77 39.5t53 62.5t19.5 82v441h-195q12 -25 23 -52q10 -25 17.5 -56.5t7.5 -72.5q0 -66 -26 -123t-70 -101t-102 -69.5t-124 -25.5z" />
<glyph unicode="z" horiz-adv-x="1505" d="M-2 1518v223h1509v-223h-125v-1141h-252v743h-151v-51q0 -92 -36 -174t-97.5 -143.5t-143 -97.5t-174.5 -36q-92 0 -174 36t-142 97.5t-96 143.5t-36 174q0 84 27.5 154.5t76.5 130.5h285q-72 -59 -105.5 -129t-33.5 -156q0 -41 16 -77t43 -62.5t62.5 -43t76.5 -16.5 q39 0 76 16.5t63.5 43t43 62.5t16.5 77v285h403v164h-524h-608zM395 444q0 55 39 94.5t94 39.5t94.5 -39t39.5 -95q0 -55 -39 -94t-95 -39q-55 0 -94 39t-39 94z" />
<glyph unicode="{" horiz-adv-x="798" d="M123 1149q55 0 84 30.5t43 67.5q14 43 16 99v583q0 70 15.5 122t41 90t57.5 64.5t66 45.5q80 39 181 47h24.5t24.5 -4v-238q-12 4 -17 4h-6q-53 0 -80.5 -21.5t-40.5 -45.5q-14 -31 -14 -68v-579q0 -55 -12 -99q-12 -37 -40 -67.5t-81 -30.5q53 0 81 -31t40 -67 q12 -43 12 -99v-579q0 -39 14 -68q12 -27 40 -47t81 -20h6q4 0 17 4v-238q-10 -2 -21.5 -3t-27.5 -1q-100 4 -181 45q-35 16 -66.5 43t-57 67t-41 92t-15.5 122v583q-2 55 -16 99q-14 37 -43 67.5t-84 30.5z" />
<glyph unicode="|" horiz-adv-x="497" d="M123 0v2300h252v-2300h-252z" />
<glyph unicode="}" horiz-adv-x="798" d="M123 4v238q12 -4 16 -4h6q53 0 81 20.5t40 46.5q14 29 15 68v579q-2 55 12 99q10 37 38.5 67.5t82.5 30.5q-53 0 -82 30.5t-39 67.5q-14 43 -12 99v579q0 37 -15 68q-12 25 -39.5 46t-81.5 21h-6q-4 0 -16 -4v238q12 4 24.5 4h24.5q100 -8 180 -47q33 -18 66 -45 t58.5 -65t40.5 -90t15 -122v-583q0 -55 17 -99q12 -37 42 -67.5t85 -30.5q-55 0 -85 -31t-42 -67q-16 -43 -17 -99v-583q0 -70 -15 -122t-40.5 -92t-58.5 -67t-66 -43q-80 -41 -180 -45q-16 0 -27.5 1t-21.5 3z" />
<glyph unicode="~" horiz-adv-x="1961" d="M123 1051v20q0 94 35 178t96 147.5t143 100.5t176 41q100 0 206 -37t208.5 -82t199.5 -82t183 -37q43 0 82 17.5t66.5 48.5t44 70t16.5 82v22h260v-22q0 -68 -22.5 -150t-75.5 -152.5t-139 -117.5t-213 -47q-90 0 -192.5 36.5t-208 81.5t-208 82t-190.5 37 q-43 0 -82 -17.5t-66.5 -47t-44 -68.5t-16.5 -82v-22h-258z" />
<glyph unicode="&#xa1;" />
<glyph unicode="&#xa2;" />
<glyph unicode="&#xa3;" />
<glyph unicode="&#xa4;" />
<glyph unicode="&#xa5;" />
<glyph unicode="&#xa6;" />
<glyph unicode="&#xa7;" />
<glyph unicode="&#xa8;" />
<glyph unicode="&#xa9;" />
<glyph unicode="&#xaa;" />
<glyph unicode="&#xab;" />
<glyph unicode="&#xac;" />
<glyph unicode="&#xad;" horiz-adv-x="839" d="M41 956v224h758v-224h-758z" />
<glyph unicode="&#xae;" />
<glyph unicode="&#xb0;" />
<glyph unicode="&#xb1;" />
<glyph unicode="&#xb2;" />
<glyph unicode="&#xb3;" />
<glyph unicode="&#xb4;" />
<glyph unicode="&#xb6;" />
<glyph unicode="&#xb7;" />
<glyph unicode="&#xb8;" />
<glyph unicode="&#xb9;" />
<glyph unicode="&#xba;" />
<glyph unicode="&#xbb;" />
<glyph unicode="&#xbc;" />
<glyph unicode="&#xbd;" />
<glyph unicode="&#xbe;" />
<glyph unicode="&#xbf;" />
<glyph unicode="&#xc0;" />
<glyph unicode="&#xc1;" />
<glyph unicode="&#xc2;" />
<glyph unicode="&#xc3;" />
<glyph unicode="&#xc4;" />
<glyph unicode="&#xc5;" />
<glyph unicode="&#xc6;" />
<glyph unicode="&#xc7;" />
<glyph unicode="&#xc8;" />
<glyph unicode="&#xc9;" />
<glyph unicode="&#xca;" />
<glyph unicode="&#xcb;" />
<glyph unicode="&#xcc;" />
<glyph unicode="&#xcd;" />
<glyph unicode="&#xce;" />
<glyph unicode="&#xcf;" />
<glyph unicode="&#xd0;" />
<glyph unicode="&#xd1;" />
<glyph unicode="&#xd2;" />
<glyph unicode="&#xd3;" />
<glyph unicode="&#xd4;" />
<glyph unicode="&#xd5;" />
<glyph unicode="&#xd6;" />
<glyph unicode="&#xd7;" />
<glyph unicode="&#xd8;" />
<glyph unicode="&#xd9;" />
<glyph unicode="&#xda;" />
<glyph unicode="&#xdb;" />
<glyph unicode="&#xdc;" />
<glyph unicode="&#xdd;" />
<glyph unicode="&#xde;" />
<glyph unicode="&#xdf;" />
<glyph unicode="&#xe0;" />
<glyph unicode="&#xe1;" />
<glyph unicode="&#xe2;" />
<glyph unicode="&#xe3;" />
<glyph unicode="&#xe4;" />
<glyph unicode="&#xe5;" />
<glyph unicode="&#xe6;" />
<glyph unicode="&#xe7;" />
<glyph unicode="&#xe8;" />
<glyph unicode="&#xe9;" />
<glyph unicode="&#xea;" />
<glyph unicode="&#xeb;" />
<glyph unicode="&#xec;" />
<glyph unicode="&#xed;" />
<glyph unicode="&#xee;" />
<glyph unicode="&#xef;" />
<glyph unicode="&#xf0;" />
<glyph unicode="&#xf1;" />
<glyph unicode="&#xf2;" />
<glyph unicode="&#xf3;" />
<glyph unicode="&#xf4;" />
<glyph unicode="&#xf5;" />
<glyph unicode="&#xf6;" />
<glyph unicode="&#xf7;" />
<glyph unicode="&#xf8;" />
<glyph unicode="&#xf9;" />
<glyph unicode="&#xfa;" />
<glyph unicode="&#xfb;" />
<glyph unicode="&#xfc;" />
<glyph unicode="&#xfd;" />
<glyph unicode="&#xfe;" />
<glyph unicode="&#xff;" />
<glyph unicode="&#x152;" />
<glyph unicode="&#x153;" />
<glyph unicode="&#x178;" />
<glyph unicode="&#x2c6;" />
<glyph unicode="&#x2dc;" />
<glyph unicode="&#x2000;" horiz-adv-x="1161" />
<glyph unicode="&#x2001;" horiz-adv-x="2322" />
<glyph unicode="&#x2002;" horiz-adv-x="1161" />
<glyph unicode="&#x2003;" horiz-adv-x="2322" />
<glyph unicode="&#x2004;" horiz-adv-x="774" />
<glyph unicode="&#x2005;" horiz-adv-x="580" />
<glyph unicode="&#x2006;" horiz-adv-x="387" />
<glyph unicode="&#x2007;" horiz-adv-x="387" />
<glyph unicode="&#x2008;" horiz-adv-x="290" />
<glyph unicode="&#x2009;" horiz-adv-x="464" />
<glyph unicode="&#x200a;" horiz-adv-x="129" />
<glyph unicode="&#x2010;" horiz-adv-x="839" d="M41 956v224h758v-224h-758z" />
<glyph unicode="&#x2011;" horiz-adv-x="839" d="M41 956v224h758v-224h-758z" />
<glyph unicode="&#x2012;" horiz-adv-x="839" d="M41 956v224h758v-224h-758z" />
<glyph unicode="&#x2013;" />
<glyph unicode="&#x2014;" />
<glyph unicode="&#x2018;" horiz-adv-x="501" d="M123 1473v268h256v-254h-137v-39q0 -72 35.5 -131.5t101.5 -75.5v-111q-63 14 -111.5 48t-80 81.5t-48 102.5t-16.5 111z" />
<glyph unicode="&#x2019;" horiz-adv-x="501" d="M123 1130v111q66 16 101.5 75.5t35.5 131.5v39h-137v254h256v-268q0 -55 -16.5 -110.5t-48 -103t-80 -81t-111.5 -48.5z" />
<glyph unicode="&#x201a;" />
<glyph unicode="&#x201c;" horiz-adv-x="894" d="M123 1473v268h256v-254h-137v-39q0 -72 35.5 -131.5t101.5 -75.5v-111q-63 14 -111.5 48t-80 81.5t-48 102.5t-16.5 111zM516 1473v268h256v-254h-137v-39q0 -72 36 -131.5t101 -75.5v-111q-63 14 -111.5 48t-80 81.5t-48 102.5t-16.5 111z" />
<glyph unicode="&#x201d;" horiz-adv-x="894" d="M123 1130v111q66 16 101.5 75.5t35.5 131.5v39h-137v254h256v-268q0 -55 -16.5 -110.5t-48 -103t-80 -81t-111.5 -48.5zM516 1130v111q66 16 101.5 75.5t35.5 131.5v39h-137v254h256v-268q0 -55 -16.5 -110.5t-48 -103t-79.5 -81t-112 -48.5z" />
<glyph unicode="&#x201e;" />
<glyph unicode="&#x2022;" horiz-adv-x="679" d="M123 1069q0 45 17.5 84t47 68.5t68.5 47t84 17.5t85 -17.5t68.5 -47t46 -68.5t17.5 -84q0 -47 -17.5 -86t-46 -68.5t-68.5 -46t-85 -16.5t-84 16.5t-68.5 46t-47 68.5t-17.5 86z" />
<glyph unicode="&#x2026;" />
<glyph unicode="&#x202f;" horiz-adv-x="464" />
<glyph unicode="&#x2039;" horiz-adv-x="1705" />
<glyph unicode="&#x203a;" />
<glyph unicode="&#x205f;" horiz-adv-x="580" />
<glyph unicode="&#x20ac;" />
<glyph unicode="&#x2122;" />
<glyph unicode="&#x25fc;" horiz-adv-x="1976" d="M0 0v1976h1976v-1976h-1976z" />
<glyph unicode="&#xfb01;" />
<glyph unicode="&#xfb02;" />
</font>
</defs>
</svg>
