<?xml version="1.0" standalone="no"?>
<!DOCTYPE svg PUBLIC "-//W3C//DTD SVG 1.1//EN" "http://www.w3.org/Graphics/SVG/1.1/DTD/svg11.dtd" >
<svg xmlns="http://www.w3.org/2000/svg">
<metadata></metadata>
<defs>
<font id="hinglish_englishregular" horiz-adv-x="0" >
<font-face units-per-em="2048" ascent="1536" descent="-512" />
<missing-glyph horiz-adv-x="819" />
<glyph />
<glyph unicode="&#xd;" horiz-adv-x="819" />
<glyph unicode=" "  horiz-adv-x="819" />
<glyph unicode="&#x09;" horiz-adv-x="819" />
<glyph unicode="&#xa0;" horiz-adv-x="819" />
<glyph unicode="!" horiz-adv-x="518" d="M205 377v252h252v-252h-252zM205 758v1540h252v-1540h-252z" />
<glyph unicode="&#x22;" horiz-adv-x="772" d="M61 1130v111q66 16 102 75.5t36 131.5v39h-138v254h256v-268q0 -55 -16 -110.5t-48 -103t-80 -81t-112 -48.5zM455 1130v111q66 16 101.5 75.5t35.5 131.5v39h-137v254h256v-268q0 -55 -16.5 -110.5t-48.5 -103t-80 -81t-111 -48.5z" />
<glyph unicode="#" horiz-adv-x="1687" d="M82 733l78 215h260l82 228h-262l77 215h261l122 350h263l-123 -350h235l123 350h262l-123 -350h269l-80 -215h-266l-82 -228h268l-78 -215h-266l-125 -356h-262l125 356h-234l-127 -356h-262l127 356h-262zM682 948h233l82 228h-233z" />
<glyph unicode="$" horiz-adv-x="1189" d="M123 1700q0 86 27.5 160.5t75.5 133t114 98.5t143 56v150h222v-158q70 -20 129 -61t103 -98.5t68.5 -129t24.5 -153.5q0 -37 -6 -69t-14 -56q-8 -29 -19 -53l-223 129q2 12 6 22q2 10 4 21.5t2 21.5q0 43 -16 82t-44 66.5t-65 44t-80 16.5t-80.5 -16.5t-65.5 -44 t-43 -64.5t-15 -80q0 -53 17.5 -89t44 -61.5t58 -42t60.5 -30.5q106 -49 206.5 -97t174.5 -116q61 -57 98 -132t37 -181q0 -82 -27.5 -156t-76 -133t-115 -100t-143.5 -56v-147h-222v155q-70 20 -129 61.5t-102 98t-67.5 125t-24.5 146.5q0 37 4 67.5t10 52.5q8 27 16 50 l228 -123q-2 -6 -4 -15q-4 -16 -4 -34q0 -43 15 -82t43 -67t64.5 -44t79.5 -16t80 16t64.5 44t44 64.5t16.5 79.5t-17.5 79t-45 65.5t-60 52.5t-65.5 39q-88 45 -173 84t-155 88q-80 57 -129 135t-49 201z" />
<glyph unicode="%" horiz-adv-x="1275" d="M123 1587q0 66 45 112t111 46t111.5 -46t45.5 -112t-46 -110.5t-111 -44.5q-66 0 -111 45t-45 110zM162 377l682 1921h260l-680 -1921h-262zM840 1108q0 63 45 108.5t110 45.5q66 0 112 -45.5t46 -108.5q0 -66 -46 -111t-112 -45t-110.5 45t-44.5 111z" />
<glyph unicode="&#x26;" horiz-adv-x="1476" d="M236 1028l327 399l258 314h-522v254h1055l-529 -656l-376 -467z" />
<glyph unicode="'" horiz-adv-x="378" d="M61 1130v111q66 16 102 75.5t36 131.5v39h-138v254h256v-268q0 -55 -16 -110.5t-48 -103t-80 -81t-112 -48.5z" />
<glyph unicode="(" horiz-adv-x="845" d="M82 1147q0 168 29.5 336t85 320.5t132.5 279.5t173 215h262q-94 -88 -175 -210t-140.5 -270.5t-93 -318.5t-33.5 -352t33.5 -350t93 -315.5t139.5 -270.5t172 -211h-264q-92 88 -169 216t-131.5 279.5t-84 318.5t-29.5 333z" />
<glyph unicode=")" horiz-adv-x="845" d="M82 2298h262q94 -88 172 -215t133.5 -279.5t85 -320.5t29.5 -336q0 -166 -29.5 -333t-84 -318.5t-131.5 -279.5t-169 -216h-264q92 88 172 211t139.5 270.5t93 315.5t33.5 350t-33.5 352t-93 318.5t-140.5 270.5t-175 210z" />
<glyph unicode="*" horiz-adv-x="1200" d="M123 1047l264 190l-264 193l143 198l211 -151v264h246v-264l211 151l143 -198l-266 -193l266 -190l-143 -201l-211 153v-264h-246v264l-213 -149z" />
<glyph unicode="+" horiz-adv-x="927" d="M82 958v218h274v274h215v-274h275v-218h-275v-270h-215v270h-274z" />
<glyph unicode="," horiz-adv-x="378" d="M61 20v111q66 16 102 75.5t36 131.5v39h-138v254h256v-269q0 -55 -16 -110t-48 -102.5t-80 -81t-112 -48.5z" />
<glyph unicode="-" horiz-adv-x="839" d="M43 956v224h758v-224h-758z" />
<glyph unicode="." horiz-adv-x="415" d="M82 377v252h252v-252h-252z" />
<glyph unicode="/" horiz-adv-x="1163" d="M82 0l729 2298h270l-731 -2298h-268z" />
<glyph unicode="0" horiz-adv-x="1525" d="M82 1059q0 141 54 265t146.5 216t216.5 146.5t265 54.5t265 -54.5t216 -146.5t145.5 -216t53.5 -265t-53.5 -265t-145.5 -216.5t-216 -146.5t-265 -54t-265 54t-216.5 146.5t-146.5 216.5t-54 265zM354 1059q0 -84 33 -159t88 -130t130 -88t159 -33t158.5 33t130 88 t87 130t31.5 159t-31.5 158.5t-87 130t-130 88t-158.5 32.5t-159 -32.5t-130 -88t-88 -130t-33 -158.5z" />
<glyph unicode="1" horiz-adv-x="1005" d="M502 1481v260q80 0 148.5 -30t120.5 -82t82 -120.5t30 -148.5v-983h-260v983q0 51 -35 86t-86 35z" />
<glyph unicode="2" horiz-adv-x="1476" d="M123 377l545 727l88 129q16 25 30.5 50.5t14.5 55.5q0 31 -13.5 57.5t-33 47t-45 33t-50.5 12.5q-41 0 -77.5 -17.5t-65.5 -46.5l-174 181q61 63 143 99t177 36q94 0 166.5 -35t122.5 -92.5t76 -128t26 -144.5q0 -66 -18.5 -122t-61.5 -115l-133 -182l-260 -322h563 l211 -223h-1231z" />
<glyph unicode="3" horiz-adv-x="1243" d="M383 1604q53 63 128 100t165 37q80 0 148.5 -30t120.5 -82t82 -120.5t30 -148.5q0 -59 -17.5 -122.5t-48.5 -117.5q59 -59 94 -138t35 -171q0 -90 -33.5 -169t-92 -138.5t-138.5 -93t-170 -33.5q-78 0 -147.5 24.5t-124.5 69.5q20 25 43.5 59.5t46.5 69.5q25 37 49 80 q25 -27 60.5 -41t74.5 -14t74 14t60.5 40t41 60.5t15.5 73.5q0 72 -48.5 126t-117.5 65h-86v231h49q53 0 90 36t37 89t-37 90t-90 37q-35 0 -64.5 -19.5t-46.5 -48.5z" />
<glyph unicode="4" horiz-adv-x="1421" d="M330 758q0 72 24.5 135t67.5 115q12 14 30.5 35.5t34.5 39.5q20 23 43 45l580 613l188 -176q-45 -47 -94 -101q-43 -45 -96 -102t-111 -117q-29 -29 -55.5 -58.5t-50.5 -58.5q-39 -41 -72 -75.5t-57 -61.5q-29 -31 -51 -55l-93 -100q-31 -35 -30 -78q0 -51 37 -86t86 -35 h362v-434h-260v188q-45 -14 -102 -14q-78 0 -146.5 29.5t-121 82t-83 121t-30.5 148.5z" />
<glyph unicode="5" horiz-adv-x="1392" d="M123 1346q0 47 11 90t30 84l207 -166v-8q0 -63 45 -107.5t110 -44.5q66 0 112 44t46 108q0 37 -15.5 66.5t-41.5 51.5q-18 18 -45 26.5t-56 8.5q-57 0 -96 -33q-14 12 -31 25q-14 10 -31.5 24.5t-33.5 30.5q-43 35 -96 78l174 672h473v-236h-277l-82 -313q86 0 163 -35 t132 -92q51 -53 80 -124t29 -150q0 -82 -32 -155t-86 -126t-128 -85t-158 -32t-156.5 32t-128 85t-87 126t-31.5 155z" />
<glyph unicode="6" horiz-adv-x="1376" d="M186 1360q0 82 32 152.5t87 123.5q10 10 16.5 18.5t22.5 26t50 54.5t100.5 106.5t171 180t262.5 278.5l190 -166l-397 -426q41 -16 73.5 -43t61.5 -59q41 -49 65.5 -111.5t24.5 -134.5t-24.5 -135.5t-68.5 -113.5t-104.5 -83t-130.5 -43q-14 -2 -26 -3t-27 -1 q-39 0 -86 10q-66 16 -118 49t-99 93q-76 98 -76 227zM440 1360q0 -51 37 -88t88 -37q53 0 88 37t35 88q0 33 -14 59q-33 63 -109 64q-51 0 -88 -35t-37 -88z" />
<glyph unicode="7" horiz-adv-x="1476" d="M236 1028l585 713h-522v254h1055l-905 -1123z" />
<glyph unicode="8" horiz-adv-x="1216" d="M123 756q0 72 24.5 136t67.5 116q12 14 31.5 35.5t36.5 39.5q20 23 43 45q-2 2 -15.5 16.5t-32 34t-36 38t-27.5 28.5q-43 51 -67.5 113.5t-24.5 134.5q0 80 29.5 149.5t82 122t121 82t148.5 29.5t149.5 -29.5t121.5 -82t82 -122t30 -149.5q0 -143 -92 -248 q-29 -31 -56.5 -59.5t-52.5 -57.5q23 -25 43 -47q16 -20 34.5 -40.5t33.5 -34.5q41 -49 65.5 -114t24.5 -136q0 -80 -30 -148.5t-82 -121t-121.5 -82t-149.5 -29.5t-148.5 29.5t-121 82t-82 121t-29.5 148.5zM383 756q0 -49 36 -85t85 -36t86 36t37 85q0 39 -21 65 q-10 12 -26.5 30.5t-32.5 37.5q-20 23 -43 45l-92 -100q-29 -33 -29 -78zM383 1493q0 -37 20 -66q8 -12 24.5 -31.5t33.5 -35.5q20 -23 43 -43l78 80q14 18 24 30q20 29 21 66q0 49 -37 85t-86 36t-85 -36t-36 -85z" />
<glyph unicode="9" horiz-adv-x="1005" d="M123 1360q0 80 29.5 148.5t81 120.5t120 82t148.5 30t148.5 -30t120.5 -82t82 -120.5t30 -148.5v-983h-260v622q-59 -18 -121 -18q-117 0 -210 62.5t-138 162.5q-31 70 -31 154zM381 1360q0 -51 35 -86t86 -35t86 35t35 86t-35 86t-86 35t-86 -35t-35 -86z" />
<glyph unicode=":" horiz-adv-x="501" d="M123 377v254h256v-254h-256zM123 1186v254h256v-254h-256z" />
<glyph unicode=";" horiz-adv-x="501" d="M123 20v111q66 16 101.5 75.5t35.5 131.5v39h-137v254h256v-269q0 -55 -16.5 -110t-48 -102.5t-80 -81t-111.5 -48.5zM123 1186v254h256v-254h-256z" />
<glyph unicode="&#x3c;" horiz-adv-x="1626" d="M123 1149l1051 1149h329l-1028 -1149l1028 -1149h-329z" />
<glyph unicode="=" horiz-adv-x="1005" d="M123 780v213h760v-213h-760zM123 1143v215h760v-215h-760z" />
<glyph unicode="&#x3e;" horiz-adv-x="1626" d="M123 0l1028 1149l-1028 1149h330l1050 -1149l-1050 -1149h-330z" />
<glyph unicode="?" horiz-adv-x="1200" d="M123 1843q0 98 38 186.5t102.5 153t150.5 102t184 37.5t186 -37.5t152.5 -102t102.5 -152.5t38 -187q0 -78 -25.5 -145.5t-67.5 -129t-97.5 -118t-116.5 -111.5q-78 -72 -122 -135t-67.5 -115.5t-29.5 -91.5t-6 -61v-178h-252v198q0 109 46 222.5t175 248.5 q68 72 123 129.5t93 105.5t58.5 92t20.5 87q0 92 -60.5 153.5t-152.5 61.5q-43 0 -80 -16.5t-65.5 -46t-45 -68.5t-16.5 -84q0 -59 33 -108l-186 -195q-53 61 -83 140t-30 165zM293 377v252h252v-252h-252z" />
<glyph unicode="@" horiz-adv-x="2142" d="M123 909q0 193 75.5 364t206 298t302.5 201.5t364 74.5q193 0 365 -74.5t302 -201.5t205.5 -298t75.5 -364v-438q0 -18 -7 -73.5t-43 -115t-111.5 -105.5t-210.5 -46q-100 0 -166 25.5t-107 63.5t-61.5 83t-27.5 83t-7 62v25v35q-92 -49 -205 -49q-96 0 -179 35.5 t-146.5 98t-99.5 145.5t-36 177t35 178.5t96.5 147t143.5 98t178 35.5q100 0 186 -37t148.5 -103.5t97.5 -156.5t35 -194v-410q0 -2 1 -20.5t10 -39t32.5 -37t69.5 -16.5q59 0 88.5 31t29.5 82v430q0 139 -55 263t-150.5 216.5t-221.5 146.5t-265 54t-265 -54t-221.5 -146.5 t-150.5 -216.5t-55 -263q0 -141 56.5 -260t151.5 -206t221 -136t263 -49h55q20 -53 58 -102q33 -41 87 -84t140 -66h-340q-188 0 -360 68.5t-303.5 190.5t-208 288.5t-76.5 361.5zM868 911q0 -41 15.5 -78.5t43 -65.5t65.5 -44t81 -16q41 0 78 16t65.5 44t45 65.5t16.5 78.5 q0 43 -16.5 80t-45 64.5t-65.5 44t-78 16.5q-43 0 -81 -16.5t-65.5 -44t-43 -64.5t-15.5 -80z" />
<glyph unicode="A" horiz-adv-x="1615" d="M102 825v25.5t2 26.5q8 76 41 142t83.5 117.5t115.5 86.5t139 49q33 6 68 6q53 0 106 -12q23 -6 47.5 -14.5t49.5 -20.5v37h252v-891h-252v43q-90 -45 -201 -45q-92 0 -174 35.5t-143.5 97t-97.5 143.5t-36 174zM354 823q0 -41 15.5 -75.5t43 -62.5t62.5 -43t76 -15 q43 0 80 15t64.5 43t43 62.5t15.5 75.5q0 86 -58.5 144.5t-144.5 58.5q-37 0 -68 -12q-45 -16 -77.5 -53t-45.5 -84q-6 -25 -6 -54z" />
<glyph unicode="B" horiz-adv-x="1392" d="M287 967v1331h250v-926q90 47 200 47q106 0 201 -47v-809q-94 -47 -201 -47q-92 0 -174 36t-143.5 97.5t-97 143t-35.5 174.5zM539 967q0 -41 15 -77t43 -63.5t63.5 -43t76.5 -15.5q29 0 64 10q43 14 75.5 46t49.5 75q12 31 12 68q0 84 -58.5 142t-142.5 58 q-37 0 -67 -12q-41 -16 -73 -49t-48 -76q-10 -34 -10 -63z" />
<glyph unicode="C" horiz-adv-x="1716" d="M80 963q0 94 36 176t97 143t143 97t174 36q88 0 166 -31v-309q-29 41 -71.5 64.5t-96.5 23.5q-41 0 -75.5 -15t-62.5 -43t-43 -64.5t-15 -79.5q0 -41 15 -76t43 -62.5t62.5 -43t75.5 -15.5t78 14.5t64.5 40t44 60t16.5 73.5v-395q-90 -45 -201 -45q-92 0 -174 36 t-143 97.5t-97 143t-36 174.5z" />
<glyph unicode="D" horiz-adv-x="1183" d="M123 946q0 94 36 176t97 143.5t143 97.5t174 36q106 0 201 -47v946h252v-1352q0 -82 -26.5 -152.5t-73.5 -129.5q-63 -76 -154.5 -122t-198.5 -46q-94 0 -176 35.5t-143 97t-96 143.5t-35 174zM375 944q0 -41 15.5 -75.5t43 -62.5t62 -43t75.5 -15q43 0 80 15t64.5 43 t43 62.5t15.5 75.5q0 55 -24 98q-27 47 -73 76t-106 29q-41 0 -75.5 -15.5t-62 -43t-43 -64.5t-15.5 -80z" />
<glyph unicode="E" horiz-adv-x="1277" d="M184 1255q0 72 20.5 138.5t57.5 124.5q66 100 173.5 161.5t234.5 61.5q129 0 235.5 -61.5t171.5 -161.5q37 -59 57.5 -124t20.5 -139q0 -57 -12 -108h-707q2 -25 17.5 -50.5t44 -47t70.5 -35t100 -13.5q59 0 102 30t66 52l165 -163q-29 -27 -65.5 -52.5t-78.5 -46 t-90 -34t-97 -13.5q-98 0 -187.5 38t-155 103.5t-104.5 153.5t-39 186zM442 1352h451q-20 76 -81.5 121t-143.5 45q-49 0 -87 -15.5t-67 -39t-46 -53.5t-26 -58z" />
<glyph unicode="F" horiz-adv-x="1718" d="M733 377v1495q0 86 33 164t89 136t133 92t165 34h82v-252h-94q-66 0 -111 -49t-45 -115v-141h207v-223h-207v-1141h-252z" />
<glyph unicode="G" horiz-adv-x="1435" d="M80 965q0 84 31.5 157.5t87 129t129 87t157.5 31.5q88 0 164 -35q-10 45 -36.5 96.5t-63.5 86.5h-41q-74 0 -139.5 28.5t-114.5 77.5t-78 114.5t-29 139.5q0 76 29 142.5t78 115.5t114.5 78t139.5 29q109 0 192 -54q31 49 69 76t76 40t68.5 16t44.5 3h9v-202 q-35 -4 -53.5 -18.5t-27.5 -31t-11.5 -30.5t-2.5 -19v-145q0 -80 -29.5 -149.5t-86.5 -118.5q16 -23 31.5 -45.5t29.5 -46.5q53 -92 77 -194t24 -204q0 -115 -26 -216t-80 -178t-135 -122t-192 -45q-84 0 -157.5 32t-129 87t-87 129t-31.5 158zM319 965q0 -70 48.5 -118 t117.5 -48q70 0 118 48t48 118t-48 117.5t-118 47.5t-118 -47.5t-48 -117.5zM371 1878q0 -57 40 -97t97 -40q59 0 99 40t40 97q0 59 -40 99t-99 40q-57 0 -97 -40t-40 -99z" />
<glyph unicode="H" horiz-adv-x="1114" d="M184 0v1741h250v-819q16 8 35.5 14t38.5 10q57 10 100 10q78 0 140.5 -25.5t117.5 -72.5q68 -57 96.5 -138t28.5 -177v-322h-252v320q0 78 -36.5 131t-114.5 53t-116 -53.5t-38 -130.5v-541h-250z" />
<glyph unicode="I" horiz-adv-x="1128" d="M608 1030v711h258v-733q-80 22 -176 22h-8h-74zM608 1786v203h258v-203h-258z" />
<glyph unicode="J" horiz-adv-x="1607" d="M502 629v252q43 0 81 16t65.5 44t44 65.5t16.5 80.5v959h252v-959q0 -96 -36 -179t-98.5 -145.5t-146.5 -98t-178 -35.5zM709 2097v201h252v-201h-252z" />
<glyph unicode="K" horiz-adv-x="1718" d="M733 377v1925h252v-934q90 47 199 47q102 0 190 -41q10 -4 19.5 -9t19.5 -11l-102 -238q-27 23 -59.5 35t-69.5 12q-41 0 -76 -15t-62.5 -43t-43 -64.5t-15.5 -79.5q0 -55 34 -107.5t93 -77.5l348 -170l-121 -229l-354 182v-182h-252z" />
<glyph unicode="L" horiz-adv-x="1781" d="M266 825v1473h252v-1475q0 -41 15.5 -75.5t43 -62.5t62.5 -43t76 -15v-252q-92 0 -174 35.5t-143.5 97t-96.5 143.5t-35 174z" />
<glyph unicode="M" horiz-adv-x="1751" d="M307 1196v545q0 86 34 163.5t91 135t135 91.5t164 34t163 -33t134 -92q59 59 135 92t164 33q86 0 164 -34t135 -91.5t91 -135t34 -163.5v-545h-252v545q0 72 -50 122t-122 50q-70 0 -121 -50.5t-51 -121.5v-545h-252v545q0 72 -50 122t-122 50t-122 -50.5t-50 -121.5 v-545h-252z" />
<glyph unicode="N" horiz-adv-x="1650" d="M143 377v500q0 92 36 175t98.5 145.5t145.5 99t175 36.5q131 0 239.5 -70.5t166.5 -181.5q49 -92 49 -204v-500h-252v500q0 41 -16.5 77.5t-44 64.5t-64.5 44t-78 16t-78 -16t-64.5 -44t-44 -64.5t-16.5 -77.5v-500h-252z" />
<glyph unicode="O" horiz-adv-x="2004" d="M61 825v25.5t2 26.5q8 76 41 142t83.5 118.5t116 87.5t138.5 47q33 6 68 6q51 0 98 -10q104 -23 187.5 -89.5t126.5 -160.5q20 -43 31.5 -91t11.5 -102q0 -127 -67.5 -237.5t-184.5 -167.5q-90 -45 -201 -45q-92 0 -174 35.5t-143.5 97t-97.5 143.5t-36 174zM313 823 q0 -41 15.5 -75.5t43 -62.5t62.5 -43t76 -15q43 0 80 15t64.5 43t43 62.5t15.5 75.5q0 86 -58.5 144.5t-144.5 58.5q-37 0 -68 -12q-45 -16 -77.5 -53t-45.5 -84q-6 -25 -6 -54z" />
<glyph unicode="P" horiz-adv-x="1105" d="M123 0v1067q0 92 36 174t97 143.5t143 97.5t174 36t174 -36t143.5 -97.5t97.5 -143.5t36 -174q0 -133 -69.5 -240.5t-182.5 -162.5q-94 -47 -199 -48q-104 0 -198 46v-662h-252zM375 1067q0 -41 16.5 -77t43 -62.5t62 -43t76.5 -16.5q39 0 76 16.5t63.5 43t43 62.5 t16.5 77q0 39 -16.5 76t-43 63.5t-63.5 43t-76 16.5t-74.5 -15.5t-62 -42t-43 -60.5t-18.5 -73v-8z" />
<glyph unicode="Q" horiz-adv-x="2418" d="M82 954q0 92 36 174t97 143.5t143 97.5t174 36q109 0 199 -47q111 -55 181.5 -161.5t70.5 -240.5v-577q0 -59 42 -89t108 -30v-260q-195 0 -298.5 95t-103.5 284v172q-90 -47 -199 -47q-92 0 -174 35.5t-143 97t-97 143.5t-36 174zM334 954q0 -41 16.5 -76.5t43 -62.5 t62.5 -43t76 -16q39 0 76 16t63.5 43t43 62.5t16.5 76.5q0 39 -16.5 76t-43 63.5t-63.5 43t-76 16.5q-41 0 -76.5 -16.5t-62 -43t-43 -63.5t-16.5 -76z" />
<glyph unicode="R" horiz-adv-x="1150" d="M301 1518v223h23q115 0 206 -41t156 -115q63 72 154.5 113t210.5 43h18v-223q-59 0 -107.5 -21.5t-82 -59.5t-51 -89.5t-17.5 -108.5v-12q0 -82 -21.5 -161t-60.5 -146.5t-95 -119.5t-126 -83v325q51 76 51 185q0 61 -17.5 114.5t-50 92.5t-81 61.5t-109.5 22.5z" />
<glyph unicode="S" horiz-adv-x="1579" d="M143 1245h260q23 -53 74 -88t111 -35q39 0 75.5 16.5t63.5 43t43 62.5t16 77q0 39 -16 75t-44 63.5t-63.5 43t-74.5 15.5h-43q-66 0 -123 24.5t-99 66.5t-67 99t-25 123t25 123t67 100t99 67.5t123 24.5h137v-219h-135q-41 0 -67.5 -26.5t-26.5 -67.5t26.5 -66.5 t67.5 -25.5h41q131 0 238.5 -59.5t162.5 -163.5q23 -43 36 -92.5t13 -104.5q0 -111 -47 -201q-47 -94 -132 -159.5t-193 -83.5q-37 -6 -78 -7q-119 0 -215 54q-92 49 -152.5 133t-77.5 188z" />
<glyph unicode="T" horiz-adv-x="1413" d="M287 860v1292h252v-411h186v-223h-186v-658q0 -57 22.5 -108.5t60 -89t89 -60t108.5 -22.5v-252q-111 0 -208 42t-168.5 113.5t-113.5 169t-42 207.5z" />
<glyph unicode="U" horiz-adv-x="1105" d="M82 449v440h252v-438q0 -41 16.5 -77t43 -62.5t62.5 -43t76 -16.5q39 0 76 16.5t63.5 43t43 62.5t16.5 77v438h252v-438q0 -92 -36 -174t-97.5 -143.5t-143 -97.5t-174.5 -36q-92 0 -174 36t-143 96.5t-97 142t-36 174.5z" />
<glyph unicode="V" horiz-adv-x="1103" d="M80 954v404h252v-404q0 -59 25.5 -117.5t75.5 -104.5t125 -74.5t171 -28.5v729h252v-981h-252q-150 0 -269.5 44t-204.5 122t-130 183t-45 228z" />
<glyph unicode="W" horiz-adv-x="1902" d="M246 954v406h252v-406q0 -39 16 -74.5t43 -62t62.5 -43t76.5 -16.5q39 0 75 16.5t62.5 43t43 62t16.5 74.5q0 82 27.5 154t74.5 131l189 -170q-39 -51 -39 -115q0 -41 16.5 -76.5t43 -63.5t62.5 -43t76 -15q39 0 76 16t63.5 44t43 66t16.5 81v397h252v-406 q0 -66 -18.5 -127t-51 -114.5t-79 -95.5t-103.5 -68q-96 -45 -199 -45q-96 0 -180 37t-145 102q-61 -63 -144 -100t-178 -37q-92 0 -174 36t-143.5 96t-97 142t-35.5 174z" />
<glyph unicode="X" horiz-adv-x="1636" d="M82 901q0 88 21.5 156.5t54 120t70.5 86t69 57.5q-49 53 -78 121.5t-29 146.5q0 80 31 152h279q-41 -23 -66.5 -64t-25.5 -88q0 -35 14 -65.5t36.5 -53t53.5 -37t66 -14.5t65.5 14.5t54 37t38 53t14.5 65.5q0 45 -22.5 84t-59.5 62h270q29 -70 29 -146q0 -80 -31 -150.5 t-84 -123.5q31 -23 67.5 -57.5t67.5 -86t51.5 -118t20.5 -150.5v-24q-39 55 -100.5 90t-133.5 35q-4 0 -9 -1.5t-9 -1.5h-12q-18 55 -52 93.5t-69 62t-67 32.5t-44 9q-16 0 -53 -14.5t-77 -48t-69.5 -91t-29.5 -143.5h-252z" />
<glyph unicode="Y" horiz-adv-x="1187" d="M82 1057v194h252v-174q0 -29 10 -59q23 -61 88.5 -100t140.5 -39q47 0 90.5 14t77 39.5t53 62.5t19.5 82v174h252v-932q0 -115 -39 -179t-92 -95t-112.5 -38t-98.5 -7h-66v223h29q82 0 115 32t33 64v355q-49 -35 -109.5 -51.5t-151.5 -16.5q-92 0 -181 36t-157.5 97.5 t-110.5 143.5t-42 174z" />
<glyph unicode="Z" horiz-adv-x="1505" d="M80 1069q0 84 27.5 154.5t76.5 130.5h285q-72 -59 -105.5 -129t-33.5 -156q0 -41 16 -77t43 -62.5t62.5 -43t76.5 -16.5q39 0 76 16.5t63.5 43t43 62.5t16.5 77v285q0 53 -14.5 86t-35 50t-40 22.5t-31.5 5.5h-477v223l231 182h-231v223h846l-494 -405h125 q86 0 148.5 -20.5t104.5 -53.5t66.5 -73t37.5 -76q10 -33 13 -83.5t3 -80.5v-285q0 -92 -36 -174t-97.5 -143.5t-143 -97.5t-174.5 -36q-92 0 -174 36t-142 97.5t-96 143.5t-36 174z" />
<glyph unicode="[" horiz-adv-x="845" d="M82 1147q0 168 29.5 336t85 320.5t132.5 279.5t173 215h262q-94 -88 -175 -210t-140.5 -270.5t-93 -318.5t-33.5 -352t33.5 -350t93 -315.5t139.5 -270.5t172 -211h-264q-92 88 -169 216t-131.5 279.5t-84 318.5t-29.5 333z" />
<glyph unicode="\" horiz-adv-x="1163" d="M82 2298h270l729 -2298h-268z" />
<glyph unicode="]" horiz-adv-x="845" d="M82 2298h262q94 -88 172 -215t133.5 -279.5t85 -320.5t29.5 -336q0 -166 -29.5 -333t-84 -318.5t-131.5 -279.5t-169 -216h-264q92 88 172 211t139.5 270.5t93 315.5t33.5 350t-33.5 352t-93 318.5t-140.5 270.5t-175 210z" />
<glyph unicode="^" horiz-adv-x="1406" d="M123 1505l582 793l579 -793h-295l-287 383l-284 -383h-295z" />
<glyph unicode="_" horiz-adv-x="452" />
<glyph unicode="`" />
<glyph unicode="a" horiz-adv-x="1615" d="M102 825v25.5t2 26.5q8 76 41 142t83.5 117.5t115.5 86.5t139 49q33 6 68 6q53 0 106 -12q23 -6 47.5 -14.5t49.5 -20.5v37h252v-891h-252v43q-90 -45 -201 -45q-92 0 -174 35.5t-143.5 97t-97.5 143.5t-36 174zM354 823q0 -41 15.5 -75.5t43 -62.5t62.5 -43t76 -15 q43 0 80 15t64.5 43t43 62.5t15.5 75.5q0 86 -58.5 144.5t-144.5 58.5q-37 0 -68 -12q-45 -16 -77.5 -53t-45.5 -84q-6 -25 -6 -54z" />
<glyph unicode="b" horiz-adv-x="1392" d="M287 967v1331h250v-926q90 47 200 47q106 0 201 -47v-809q-94 -47 -201 -47q-92 0 -174 36t-143.5 97.5t-97 143t-35.5 174.5zM539 967q0 -41 15 -77t43 -63.5t63.5 -43t76.5 -15.5q29 0 64 10q43 14 75.5 46t49.5 75q12 31 12 68q0 84 -58.5 142t-142.5 58 q-37 0 -67 -12q-41 -16 -73 -49t-48 -76q-10 -34 -10 -63z" />
<glyph unicode="c" horiz-adv-x="1716" d="M80 963q0 94 36 176t97 143t143 97t174 36q88 0 166 -31v-309q-29 41 -71.5 64.5t-96.5 23.5q-41 0 -75.5 -15t-62.5 -43t-43 -64.5t-15 -79.5q0 -41 15 -76t43 -62.5t62.5 -43t75.5 -15.5t78 14.5t64.5 40t44 60t16.5 73.5v-395q-90 -45 -201 -45q-92 0 -174 36 t-143 97.5t-97 143t-36 174.5z" />
<glyph unicode="d" horiz-adv-x="1183" d="M123 946q0 94 36 176t97 143.5t143 97.5t174 36q106 0 201 -47v946h252v-1352q0 -82 -26.5 -152.5t-73.5 -129.5q-63 -76 -154.5 -122t-198.5 -46q-94 0 -176 35.5t-143 97t-96 143.5t-35 174zM375 944q0 -41 15.5 -75.5t43 -62.5t62 -43t75.5 -15q43 0 80 15t64.5 43 t43 62.5t15.5 75.5q0 55 -24 98q-27 47 -73 76t-106 29q-41 0 -75.5 -15.5t-62 -43t-43 -64.5t-15.5 -80z" />
<glyph unicode="e" horiz-adv-x="1277" d="M184 1255q0 72 20.5 138.5t57.5 124.5q66 100 173.5 161.5t234.5 61.5q129 0 235.5 -61.5t171.5 -161.5q37 -59 57.5 -124t20.5 -139q0 -57 -12 -108h-707q2 -25 17.5 -50.5t44 -47t70.5 -35t100 -13.5q59 0 102 30t66 52l165 -163q-29 -27 -65.5 -52.5t-78.5 -46 t-90 -34t-97 -13.5q-98 0 -187.5 38t-155 103.5t-104.5 153.5t-39 186zM442 1352h451q-20 76 -81.5 121t-143.5 45q-49 0 -87 -15.5t-67 -39t-46 -53.5t-26 -58z" />
<glyph unicode="f" horiz-adv-x="1718" d="M733 377v1495q0 86 33 164t89 136t133 92t165 34h82v-252h-94q-66 0 -111 -49t-45 -115v-141h207v-223h-207v-1141h-252z" />
<glyph unicode="g" horiz-adv-x="1435" d="M80 965q0 84 31.5 157.5t87 129t129 87t157.5 31.5q88 0 164 -35q-10 45 -36.5 96.5t-63.5 86.5h-41q-74 0 -139.5 28.5t-114.5 77.5t-78 114.5t-29 139.5q0 76 29 142.5t78 115.5t114.5 78t139.5 29q109 0 192 -54q31 49 69 76t76 40t68.5 16t44.5 3h9v-202 q-35 -4 -53.5 -18.5t-27.5 -31t-11.5 -30.5t-2.5 -19v-145q0 -80 -29.5 -149.5t-86.5 -118.5q16 -23 31.5 -45.5t29.5 -46.5q53 -92 77 -194t24 -204q0 -115 -26 -216t-80 -178t-135 -122t-192 -45q-84 0 -157.5 32t-129 87t-87 129t-31.5 158zM319 965q0 -70 48.5 -118 t117.5 -48q70 0 118 48t48 118t-48 117.5t-118 47.5t-118 -47.5t-48 -117.5zM371 1878q0 -57 40 -97t97 -40q59 0 99 40t40 97q0 59 -40 99t-99 40q-57 0 -97 -40t-40 -99z" />
<glyph unicode="h" horiz-adv-x="1114" d="M184 0v1741h250v-819q16 8 35.5 14t38.5 10q57 10 100 10q78 0 140.5 -25.5t117.5 -72.5q68 -57 96.5 -138t28.5 -177v-322h-252v320q0 78 -36.5 131t-114.5 53t-116 -53.5t-38 -130.5v-541h-250z" />
<glyph unicode="i" horiz-adv-x="1128" d="M608 1030v711h258v-733q-80 22 -176 22h-8h-74zM608 1786v203h258v-203h-258z" />
<glyph unicode="j" horiz-adv-x="1607" d="M502 629v252q43 0 81 16t65.5 44t44 65.5t16.5 80.5v959h252v-959q0 -96 -36 -179t-98.5 -145.5t-146.5 -98t-178 -35.5zM709 2097v201h252v-201h-252z" />
<glyph unicode="k" horiz-adv-x="1718" d="M733 377v1925h252v-934q90 47 199 47q102 0 190 -41q10 -4 19.5 -9t19.5 -11l-102 -238q-27 23 -59.5 35t-69.5 12q-41 0 -76 -15t-62.5 -43t-43 -64.5t-15.5 -79.5q0 -55 34 -107.5t93 -77.5l348 -170l-121 -229l-354 182v-182h-252z" />
<glyph unicode="l" horiz-adv-x="1781" d="M266 825v1473h252v-1475q0 -41 15.5 -75.5t43 -62.5t62.5 -43t76 -15v-252q-92 0 -174 35.5t-143.5 97t-96.5 143.5t-35 174z" />
<glyph unicode="m" horiz-adv-x="1751" d="M307 1196v545q0 86 34 163.5t91 135t135 91.5t164 34t163 -33t134 -92q59 59 135 92t164 33q86 0 164 -34t135 -91.5t91 -135t34 -163.5v-545h-252v545q0 72 -50 122t-122 50q-70 0 -121 -50.5t-51 -121.5v-545h-252v545q0 72 -50 122t-122 50t-122 -50.5t-50 -121.5 v-545h-252z" />
<glyph unicode="n" horiz-adv-x="1650" d="M143 377v500q0 92 36 175t98.5 145.5t145.5 99t175 36.5q131 0 239.5 -70.5t166.5 -181.5q49 -92 49 -204v-500h-252v500q0 41 -16.5 77.5t-44 64.5t-64.5 44t-78 16t-78 -16t-64.5 -44t-44 -64.5t-16.5 -77.5v-500h-252z" />
<glyph unicode="o" horiz-adv-x="2004" d="M61 825v25.5t2 26.5q8 76 41 142t83.5 118.5t116 87.5t138.5 47q33 6 68 6q51 0 98 -10q104 -23 187.5 -89.5t126.5 -160.5q20 -43 31.5 -91t11.5 -102q0 -127 -67.5 -237.5t-184.5 -167.5q-90 -45 -201 -45q-92 0 -174 35.5t-143.5 97t-97.5 143.5t-36 174zM313 823 q0 -41 15.5 -75.5t43 -62.5t62.5 -43t76 -15q43 0 80 15t64.5 43t43 62.5t15.5 75.5q0 86 -58.5 144.5t-144.5 58.5q-37 0 -68 -12q-45 -16 -77.5 -53t-45.5 -84q-6 -25 -6 -54z" />
<glyph unicode="p" horiz-adv-x="1105" d="M123 0v1067q0 92 36 174t97 143.5t143 97.5t174 36t174 -36t143.5 -97.5t97.5 -143.5t36 -174q0 -133 -69.5 -240.5t-182.5 -162.5q-94 -47 -199 -48q-104 0 -198 46v-662h-252zM375 1067q0 -41 16.5 -77t43 -62.5t62 -43t76.5 -16.5q39 0 76 16.5t63.5 43t43 62.5 t16.5 77q0 39 -16.5 76t-43 63.5t-63.5 43t-76 16.5t-74.5 -15.5t-62 -42t-43 -60.5t-18.5 -73v-8z" />
<glyph unicode="q" horiz-adv-x="2418" d="M82 954q0 92 36 174t97 143.5t143 97.5t174 36q109 0 199 -47q111 -55 181.5 -161.5t70.5 -240.5v-577q0 -59 42 -89t108 -30v-260q-195 0 -298.5 95t-103.5 284v172q-90 -47 -199 -47q-92 0 -174 35.5t-143 97t-97 143.5t-36 174zM334 954q0 -41 16.5 -76.5t43 -62.5 t62.5 -43t76 -16q39 0 76 16t63.5 43t43 62.5t16.5 76.5q0 39 -16.5 76t-43 63.5t-63.5 43t-76 16.5q-41 0 -76.5 -16.5t-62 -43t-43 -63.5t-16.5 -76z" />
<glyph unicode="r" horiz-adv-x="1150" d="M301 1518v223h23q115 0 206 -41t156 -115q63 72 154.5 113t210.5 43h18v-223q-59 0 -107.5 -21.5t-82 -59.5t-51 -89.5t-17.5 -108.5v-12q0 -82 -21.5 -161t-60.5 -146.5t-95 -119.5t-126 -83v325q51 76 51 185q0 61 -17.5 114.5t-50 92.5t-81 61.5t-109.5 22.5z" />
<glyph unicode="s" horiz-adv-x="1579" d="M143 1245h260q23 -53 74 -88t111 -35q39 0 75.5 16.5t63.5 43t43 62.5t16 77q0 39 -16 75t-44 63.5t-63.5 43t-74.5 15.5h-43q-66 0 -123 24.5t-99 66.5t-67 99t-25 123t25 123t67 100t99 67.5t123 24.5h137v-219h-135q-41 0 -67.5 -26.5t-26.5 -67.5t26.5 -66.5 t67.5 -25.5h41q131 0 238.5 -59.5t162.5 -163.5q23 -43 36 -92.5t13 -104.5q0 -111 -47 -201q-47 -94 -132 -159.5t-193 -83.5q-37 -6 -78 -7q-119 0 -215 54q-92 49 -152.5 133t-77.5 188z" />
<glyph unicode="t" horiz-adv-x="1413" d="M287 860v1292h252v-411h186v-223h-186v-658q0 -57 22.5 -108.5t60 -89t89 -60t108.5 -22.5v-252q-111 0 -208 42t-168.5 113.5t-113.5 169t-42 207.5z" />
<glyph unicode="u" horiz-adv-x="1105" d="M82 449v440h252v-438q0 -41 16.5 -77t43 -62.5t62.5 -43t76 -16.5q39 0 76 16.5t63.5 43t43 62.5t16.5 77v438h252v-438q0 -92 -36 -174t-97.5 -143.5t-143 -97.5t-174.5 -36q-92 0 -174 36t-143 96.5t-97 142t-36 174.5z" />
<glyph unicode="v" horiz-adv-x="1103" d="M80 954v404h252v-404q0 -59 25.5 -117.5t75.5 -104.5t125 -74.5t171 -28.5v729h252v-981h-252q-150 0 -269.5 44t-204.5 122t-130 183t-45 228z" />
<glyph unicode="w" horiz-adv-x="1902" d="M246 954v406h252v-406q0 -39 16 -74.5t43 -62t62.5 -43t76.5 -16.5q39 0 75 16.5t62.5 43t43 62t16.5 74.5q0 82 27.5 154t74.5 131l189 -170q-39 -51 -39 -115q0 -41 16.5 -76.5t43 -63.5t62.5 -43t76 -15q39 0 76 16t63.5 44t43 66t16.5 81v397h252v-406 q0 -66 -18.5 -127t-51 -114.5t-79 -95.5t-103.5 -68q-96 -45 -199 -45q-96 0 -180 37t-145 102q-61 -63 -144 -100t-178 -37q-92 0 -174 36t-143.5 96t-97 142t-35.5 174z" />
<glyph unicode="x" horiz-adv-x="1636" d="M82 901q0 88 21.5 156.5t54 120t70.5 86t69 57.5q-49 53 -78 121.5t-29 146.5q0 80 31 152h279q-41 -23 -66.5 -64t-25.5 -88q0 -35 14 -65.5t36.5 -53t53.5 -37t66 -14.5t65.5 14.5t54 37t38 53t14.5 65.5q0 45 -22.5 84t-59.5 62h270q29 -70 29 -146q0 -80 -31 -150.5 t-84 -123.5q31 -23 67.5 -57.5t67.5 -86t51.5 -118t20.5 -150.5v-24q-39 55 -100.5 90t-133.5 35q-4 0 -9 -1.5t-9 -1.5h-12q-18 55 -52 93.5t-69 62t-67 32.5t-44 9q-16 0 -53 -14.5t-77 -48t-69.5 -91t-29.5 -143.5h-252z" />
<glyph unicode="y" horiz-adv-x="1187" d="M82 1057v194h252v-174q0 -29 10 -59q23 -61 88.5 -100t140.5 -39q47 0 90.5 14t77 39.5t53 62.5t19.5 82v174h252v-932q0 -115 -39 -179t-92 -95t-112.5 -38t-98.5 -7h-66v223h29q82 0 115 32t33 64v355q-49 -35 -109.5 -51.5t-151.5 -16.5q-92 0 -181 36t-157.5 97.5 t-110.5 143.5t-42 174z" />
<glyph unicode="z" horiz-adv-x="1505" d="M80 1069q0 84 27.5 154.5t76.5 130.5h285q-72 -59 -105.5 -129t-33.5 -156q0 -41 16 -77t43 -62.5t62.5 -43t76.5 -16.5q39 0 76 16.5t63.5 43t43 62.5t16.5 77v285q0 53 -14.5 86t-35 50t-40 22.5t-31.5 5.5h-477v223l231 182h-231v223h846l-494 -405h125 q86 0 148.5 -20.5t104.5 -53.5t66.5 -73t37.5 -76q10 -33 13 -83.5t3 -80.5v-285q0 -92 -36 -174t-97.5 -143.5t-143 -97.5t-174.5 -36q-92 0 -174 36t-142 97.5t-96 143.5t-36 174z" />
<glyph unicode="{" horiz-adv-x="798" d="M123 1149q55 0 84 30.5t43 67.5q14 43 16 99v583q0 70 15.5 122t41 90t57.5 64.5t66 45.5q80 39 181 47h24.5t24.5 -4v-238q-12 4 -17 4h-6q-53 0 -80.5 -21.5t-40.5 -45.5q-14 -31 -14 -68v-579q0 -55 -12 -99q-12 -37 -40 -67.5t-81 -30.5q53 0 81 -31t40 -67 q12 -43 12 -99v-579q0 -39 14 -68q12 -27 40 -47t81 -20h6q4 0 17 4v-238q-10 -2 -21.5 -3t-27.5 -1q-100 4 -181 45q-35 16 -66.5 43t-57 67t-41 92t-15.5 122v583q-2 55 -16 99q-14 37 -43 67.5t-84 30.5z" />
<glyph unicode="|" horiz-adv-x="497" d="M123 0v2300h252v-2300h-252z" />
<glyph unicode="}" horiz-adv-x="798" d="M123 4v238q12 -4 16 -4h6q53 0 81 20.5t40 46.5q14 29 15 68v579q-2 55 12 99q10 37 38.5 67.5t82.5 30.5q-53 0 -82 30.5t-39 67.5q-14 43 -12 99v579q0 37 -15 68q-12 25 -39.5 46t-81.5 21h-6q-4 0 -16 -4v238q12 4 24.5 4h24.5q100 -8 180 -47q33 -18 66 -45 t58.5 -65t40.5 -90t15 -122v-583q0 -55 17 -99q12 -37 42 -67.5t85 -30.5q-55 0 -85 -31t-42 -67q-16 -43 -17 -99v-583q0 -70 -15 -122t-40.5 -92t-58.5 -67t-66 -43q-80 -41 -180 -45q-16 0 -27.5 1t-21.5 3z" />
<glyph unicode="~" horiz-adv-x="1961" d="M123 1051v20q0 94 35 178t96 147.5t143 100.5t176 41q100 0 206 -37t208.5 -82t199.5 -82t183 -37q43 0 82 17.5t66.5 48.5t44 70t16.5 82v22h260v-22q0 -68 -22.5 -150t-75.5 -152.5t-139 -117.5t-213 -47q-90 0 -192.5 36.5t-208 81.5t-208 82t-190.5 37 q-43 0 -82 -17.5t-66.5 -47t-44 -68.5t-16.5 -82v-22h-258z" />
<glyph unicode="&#xa0;" />
<glyph unicode="&#xa1;" />
<glyph unicode="&#xa2;" />
<glyph unicode="&#xa3;" />
<glyph unicode="&#xa4;" />
<glyph unicode="&#xa5;" />
<glyph unicode="&#xa6;" />
<glyph unicode="&#xa7;" />
<glyph unicode="&#xa8;" />
<glyph unicode="&#xa9;" />
<glyph unicode="&#xaa;" />
<glyph unicode="&#xab;" />
<glyph unicode="&#xac;" />
<glyph unicode="&#xad;" horiz-adv-x="839" d="M43 956v224h758v-224h-758z" />
<glyph unicode="&#xae;" />
<glyph unicode="&#xaf;" />
<glyph unicode="&#xb0;" />
<glyph unicode="&#xb1;" />
<glyph unicode="&#xb2;" />
<glyph unicode="&#xb3;" />
<glyph unicode="&#xb4;" />
<glyph unicode="&#xb6;" />
<glyph unicode="&#xb7;" />
<glyph unicode="&#xb8;" />
<glyph unicode="&#xb9;" />
<glyph unicode="&#xba;" />
<glyph unicode="&#xbb;" horiz-adv-x="1705" />
<glyph unicode="&#xbc;" />
<glyph unicode="&#xbd;" />
<glyph unicode="&#xbe;" />
<glyph unicode="&#xbf;" />
<glyph unicode="&#xc0;" />
<glyph unicode="&#xc1;" />
<glyph unicode="&#xc2;" />
<glyph unicode="&#xc3;" />
<glyph unicode="&#xc4;" />
<glyph unicode="&#xc5;" />
<glyph unicode="&#xc6;" />
<glyph unicode="&#xc7;" />
<glyph unicode="&#xc8;" />
<glyph unicode="&#xc9;" />
<glyph unicode="&#xca;" />
<glyph unicode="&#xcb;" />
<glyph unicode="&#xcc;" />
<glyph unicode="&#xcd;" />
<glyph unicode="&#xce;" />
<glyph unicode="&#xcf;" />
<glyph unicode="&#xd0;" />
<glyph unicode="&#xd1;" />
<glyph unicode="&#xd2;" />
<glyph unicode="&#xd3;" />
<glyph unicode="&#xd4;" />
<glyph unicode="&#xd5;" />
<glyph unicode="&#xd6;" />
<glyph unicode="&#xd7;" />
<glyph unicode="&#xd8;" />
<glyph unicode="&#xd9;" />
<glyph unicode="&#xda;" />
<glyph unicode="&#xdb;" />
<glyph unicode="&#xdc;" />
<glyph unicode="&#xdd;" />
<glyph unicode="&#xde;" />
<glyph unicode="&#xdf;" />
<glyph unicode="&#xe0;" horiz-adv-x="16158" />
<glyph unicode="&#xe1;" />
<glyph unicode="&#xe2;" />
<glyph unicode="&#xe3;" />
<glyph unicode="&#xe4;" />
<glyph unicode="&#xe5;" />
<glyph unicode="&#xe6;" />
<glyph unicode="&#xe7;" />
<glyph unicode="&#xe8;" />
<glyph unicode="&#xe9;" />
<glyph unicode="&#xea;" />
<glyph unicode="&#xeb;" />
<glyph unicode="&#xec;" />
<glyph unicode="&#xed;" />
<glyph unicode="&#xee;" />
<glyph unicode="&#xef;" />
<glyph unicode="&#xf0;" />
<glyph unicode="&#xf1;" />
<glyph unicode="&#xf2;" />
<glyph unicode="&#xf3;" />
<glyph unicode="&#xf4;" />
<glyph unicode="&#xf5;" />
<glyph unicode="&#xf6;" />
<glyph unicode="&#xf7;" />
<glyph unicode="&#xf8;" />
<glyph unicode="&#xf9;" />
<glyph unicode="&#xfa;" />
<glyph unicode="&#xfb;" />
<glyph unicode="&#xfc;" />
<glyph unicode="&#xfd;" />
<glyph unicode="&#xfe;" />
<glyph unicode="&#xff;" />
<glyph unicode="&#x152;" />
<glyph unicode="&#x153;" />
<glyph unicode="&#x178;" />
<glyph unicode="&#x2c6;" />
<glyph unicode="&#x2dc;" />
<glyph unicode="&#x2000;" horiz-adv-x="1162" />
<glyph unicode="&#x2001;" horiz-adv-x="2324" />
<glyph unicode="&#x2002;" horiz-adv-x="1162" />
<glyph unicode="&#x2003;" horiz-adv-x="2324" />
<glyph unicode="&#x2004;" horiz-adv-x="774" />
<glyph unicode="&#x2005;" horiz-adv-x="581" />
<glyph unicode="&#x2006;" horiz-adv-x="387" />
<glyph unicode="&#x2007;" horiz-adv-x="387" />
<glyph unicode="&#x2008;" horiz-adv-x="290" />
<glyph unicode="&#x2009;" horiz-adv-x="464" />
<glyph unicode="&#x200a;" horiz-adv-x="129" />
<glyph unicode="&#x2010;" horiz-adv-x="839" d="M43 956v224h758v-224h-758z" />
<glyph unicode="&#x2011;" horiz-adv-x="839" d="M43 956v224h758v-224h-758z" />
<glyph unicode="&#x2012;" horiz-adv-x="839" d="M43 956v224h758v-224h-758z" />
<glyph unicode="&#x2013;" />
<glyph unicode="&#x2014;" />
<glyph unicode="&#x2018;" horiz-adv-x="501" d="M123 1473v268h256v-254h-137v-39q0 -72 35.5 -131.5t101.5 -75.5v-111q-63 14 -111.5 48t-80 81.5t-48 102.5t-16.5 111z" />
<glyph unicode="&#x2019;" horiz-adv-x="501" d="M123 1130v111q66 16 101.5 75.5t35.5 131.5v39h-137v254h256v-268q0 -55 -16.5 -110.5t-48 -103t-80 -81t-111.5 -48.5z" />
<glyph unicode="&#x201a;" />
<glyph unicode="&#x201c;" horiz-adv-x="894" d="M123 1473v268h256v-254h-137v-39q0 -72 35.5 -131.5t101.5 -75.5v-111q-63 14 -111.5 48t-80 81.5t-48 102.5t-16.5 111zM516 1473v268h256v-254h-137v-39q0 -72 36 -131.5t101 -75.5v-111q-63 14 -111.5 48t-80 81.5t-48 102.5t-16.5 111z" />
<glyph unicode="&#x201d;" horiz-adv-x="894" d="M123 1130v111q66 16 101.5 75.5t35.5 131.5v39h-137v254h256v-268q0 -55 -16.5 -110.5t-48 -103t-80 -81t-111.5 -48.5zM516 1130v111q66 16 101.5 75.5t35.5 131.5v39h-137v254h256v-268q0 -55 -16.5 -110.5t-48 -103t-79.5 -81t-112 -48.5z" />
<glyph unicode="&#x201e;" />
<glyph unicode="&#x2022;" horiz-adv-x="679" d="M123 1069q0 45 17.5 84t47 68.5t68.5 47t84 17.5t85 -17.5t68.5 -47t46 -68.5t17.5 -84q0 -47 -17.5 -86t-46 -68.5t-68.5 -46t-85 -16.5t-84 16.5t-68.5 46t-47 68.5t-17.5 86z" />
<glyph unicode="&#x2026;" />
<glyph unicode="&#x202f;" horiz-adv-x="464" />
<glyph unicode="&#x2039;" />
<glyph unicode="&#x203a;" />
<glyph unicode="&#x205f;" horiz-adv-x="581" />
<glyph unicode="&#x20ac;" />
<glyph unicode="&#x2122;" />
<glyph unicode="&#x25fc;" horiz-adv-x="1740" d="M0 0v1741h1741v-1741h-1741z" />
<glyph unicode="&#xfb01;" />
<glyph unicode="&#xfb02;" />
</font>
</defs>
</svg>
